Начать новую тему Ответить на тему
Статистика раздачи
Размер: 349.57 МБ | Добавлен: 26 мар 2019, 18:49 | Скачали: 0
Сидеров: 0  [0 байт/сек]    Личеров: 0  [0 байт/сек]
Пред. тема | След. тема 

Автор
Сообщение

СообщениеДобавлено: 26 мар 2019, 18:49 

Ответить с цитатой 

Casting Crowns - Until The Whole World Hears
Жанр: Pop-Rock, Soft Rock
Год выпуска диска: 2009
Производитель диска: USA
Аудио кодек: FLAC
Тип рипа: tracks+.cue
Битрейт аудио: Lossless
Продолжительность: 51:02
Трэклист:
01. Until The Whole World Hears (5:03)
02. I We've Ever Needed You (3:39)
03. Always Enough (4:56)
04. Joyful, Joyful (4:28)
05. At Your Feet (4:36)
06. Glorious Day (Living He Loved Me) (4:41)
07. Holy One (3:18)
08. To Know You (4:26)
09. Mercy (4:56)
10. Jesus hold Me Now (4:15)
11. Blessed Redeemer (4:13)
12. Shadow Of Your Wings (2:31)
Доп. информация:
Код:
Exact Audio Copy V0.99 prebeta 5 from 4. May 2009
EAC extraction logfile from 18. November 2009, 0:06
Casting Crowns / Until The Whole World Hears
Used drive  : LITE-ON DVDRW SHM-165H6S   Adapter: 1  ID: 0
Read mode               : Secure
Utilize accurate stream : Yes
Defeat audio cache      : Yes
Make use of C2 pointers : No
Read offset correction                      : 6
Overread into Lead-In and Lead-Out          : No
Fill up missing offset samples with silence : Yes
Delete leading and trailing silent blocks   : No
Null samples used in CRC calculations       : Yes
Used interface                              : Installed external ASPI interface
Gap handling                                : Appended to previous track
Used output format              : User Defined Encoder
Selected bitrate                : 768 kBit/s
Quality                         : High
Add ID3 tag                     : No
Command line compressor         : G:\Program Files\Exact Audio Copy\FLAC\FLAC.EXE
Additional command line options : -V -5 -T "artist=%a" -T "title=%t" -T "album=%g" -T "date=%y" -T "tracknumber=%n" -T "genre=%m" %s
TOC of the extracted CD
     Track |   Start  |  Length  | Start sector | End sector
    ---------------------------------------------------------
        1  |  0:00.00 |  5:03.60 |         0    |    22784
        2  |  5:03.60 |  3:39.29 |     22785    |    39238
        3  |  8:43.14 |  4:56.11 |     39239    |    61449
        4  | 13:39.25 |  4:28.01 |     61450    |    81550
        5  | 18:07.26 |  4:36.63 |     81551    |   102313
        6  | 22:44.14 |  4:41.30 |    102314    |   123418
        7  | 27:25.44 |  3:18.43 |    123419    |   138311
        8  | 30:44.12 |  4:26.31 |    138312    |   158292
        9  | 35:10.43 |  4:56.44 |    158293    |   180536
       10  | 40:07.12 |  4:15.38 |    180537    |   199699
       11  | 44:22.50 |  4:13.02 |    199700    |   218676
       12  | 48:35.52 |  2:31.49 |    218677    |   230050
Track  1
     Filename C:\Casting Crowns - 2009 - Until The Whole World Hears\01 - Until The Whole World Hears.wav
     Pre-gap length  0:00:02.00
     Peak level 99.9 %
     Track quality 100.0 %
     Test CRC 1D9B0ACD
     Copy CRC 1D9B0ACD
     Track not present in AccurateRip database
     Copy OK
Track  2
     Filename C:\Casting Crowns - 2009 - Until The Whole World Hears\02 - I We've Ever Needed You.wav
     Peak level 99.9 %
     Track quality 100.0 %
     Test CRC 275BB482
     Copy CRC 275BB482
     Track not present in AccurateRip database
     Copy OK
Track  3
     Filename C:\Casting Crowns - 2009 - Until The Whole World Hears\03 - Always Enough.wav
     Pre-gap length  0:00:00.64
     Peak level 99.9 %
     Track quality 100.0 %
     Test CRC 55BC3265
     Copy CRC 55BC3265
     Track not present in AccurateRip database
     Copy OK
Track  4
     Filename C:\Casting Crowns - 2009 - Until The Whole World Hears\04 - Joyful, Joyful.wav
     Pre-gap length  0:00:00.70
     Peak level 99.9 %
     Track quality 100.0 %
     Test CRC BD827B03
     Copy CRC BD827B03
     Track not present in AccurateRip database
     Copy OK
Track  5
     Filename C:\Casting Crowns - 2009 - Until The Whole World Hears\05 - At Your Feet.wav
     Pre-gap length  0:00:01.58
     Peak level 99.9 %
     Track quality 100.0 %
     Test CRC 85ECE265
     Copy CRC 85ECE265
     Track not present in AccurateRip database
     Copy OK
Track  6
     Filename C:\Casting Crowns - 2009 - Until The Whole World Hears\06 - Glorious Day (Living He Loved Me).wav
     Pre-gap length  0:00:01.26
     Peak level 99.9 %
     Track quality 100.0 %
     Test CRC 54BB40F6
     Copy CRC 54BB40F6
     Track not present in AccurateRip database
     Copy OK
Track  7
     Filename C:\Casting Crowns - 2009 - Until The Whole World Hears\07 - Holy One.wav
     Pre-gap length  0:00:00.52
     Peak level 99.9 %
     Track quality 99.9 %
     Test CRC F5A28C37
     Copy CRC F5A28C37
     Track not present in AccurateRip database
     Copy OK
Track  8
     Filename C:\Casting Crowns - 2009 - Until The Whole World Hears\08 - To Know You.wav
     Pre-gap length  0:00:01.64
     Peak level 99.9 %
     Track quality 100.0 %
     Test CRC 13D80ED4
     Copy CRC 13D80ED4
     Track not present in AccurateRip database
     Copy OK
Track  9
     Filename C:\Casting Crowns - 2009 - Until The Whole World Hears\09 - Mercy.wav
     Pre-gap length  0:00:00.56
     Peak level 99.9 %
     Track quality 100.0 %
     Test CRC D9CA9826
     Copy CRC D9CA9826
     Track not present in AccurateRip database
     Copy OK
Track 10
     Filename C:\Casting Crowns - 2009 - Until The Whole World Hears\10 - Jesus hold Me Now.wav
     Pre-gap length  0:00:00.16
     Peak level 99.9 %
     Track quality 100.0 %
     Test CRC 63949255
     Copy CRC 63949255
     Track not present in AccurateRip database
     Copy OK
Track 11
     Filename C:\Casting Crowns - 2009 - Until The Whole World Hears\11 - Blessed Redeemer.wav
     Peak level 96.4 %
     Track quality 99.9 %
     Test CRC E12E3D57
     Copy CRC E12E3D57
     Track not present in AccurateRip database
     Copy OK
Track 12
     Filename C:\Casting Crowns - 2009 - Until The Whole World Hears\12 - Shadow Of Your Wings.wav
     Pre-gap length  0:00:04.48
     Peak level 99.9 %
     Track quality 100.0 %
     Test CRC F668B0DA
     Copy CRC F668B0DA
     Track not present in AccurateRip database
     Copy OK
None of the tracks are present in the AccurateRip database
No errors occurred
End of status report
AUDIOCHECKER v2.0 beta (build 457) - by Dester - opdester@freemail.hu
~~~~~~~~~~~~~~~~~~~~~~~~~~~~~~~~~~
-=== DO NOT EDIT THIS FILE! ===-
Path: ...\Casting Crowns- 2009-Until The Whole World Hears
01 -=- 01 - Until The Whole World Hears.flac -=- CDDA (99%)
02 -=- 02 - I We've Ever Needed You.flac -=- CDDA (100%)
03 -=- 03 - Always Enough.flac -=- CDDA (100%)
04 -=- 04 - Joyful, Joyful.flac -=- CDDA (100%)
05 -=- 05 - At Your Feet.flac -=- CDDA (100%)
06 -=- 06 - Glorious Day (Living He Loved Me).flac -=- CDDA (100%)
07 -=- 07 - Holy One.flac -=- CDDA (100%)
08 -=- 08 - To Know You.flac -=- CDDA (100%)
09 -=- 09 - Mercy.flac -=- CDDA (100%)
10 -=- 10 - Jesus hold Me Now.flac -=- CDDA (99%)
11 -=- 11 - Blessed Redeemer.flac -=- CDDA (100%)
12 -=- 12 - Shadow Of Your Wings.flac -=- CDDA (100%)
Summary 99,83% CDDA
152864676
Правила, инструкции, FAQ!!!
Торрент  Добавлен [26 мар 2019, 18:49] Скачать торрент Магнет ссылка
Скачать торрент
[ Размер 29.55 КБ / Просмотров 0 ]

Статус
Проверен 
 
Размер  349.57 МБ
Приватный: Нет (DHT включён)
.torrent скачан  0
 


     Отправить личное сообщение
   
Страница 1 из 1
Показать сообщения за:  Поле сортировки  
Начать новую тему Ответить на тему


Сейчас этот форум просматривают: нет зарегистрированных пользователей и гости: 0


Вы не можете начинать темы
Вы не можете отвечать на сообщения
Вы не можете редактировать свои сообщения
Вы не можете удалять свои сообщения
Вы не можете добавлять вложения

Перейти:  
cron