Начать новую тему Ответить на тему
Статистика раздачи
Размер: 959.14 МБ | Добавлен: 05 май 2020, 10:43 | Скачали: 0
Сидеров: 0  [0 байт/сек]    Личеров: 0  [0 байт/сек]
Пред. тема | След. тема 

Автор
Сообщение

СообщениеДобавлено: 05 май 2020, 10:43 

Ответить с цитатой 

Peter Straker / This One's On Me (3CD Set)
Жанр: Pop Rock, Soft Rock, Cabaret
Носитель: CD
Страна-производитель диска (релиза): UK
Год издания: 2020
Издатель (лейбл): Strike Force Entertainment/ Cherry Red Records
Номер по каталогу: SFE 082BOX
Страна исполнителя (группы): UK
Аудиокодек: FLAC (*.flac)
Тип рипа: image+.cue
Продолжительность: 02:00:21
Источник: собственный рип
Наличие сканов в содержимом раздачи: да
Треклист:
1. Ada (0:34)
2. I've Been To Hell And Back (2:46)
3. The Day The Talkies Came (5:04)
4. Heart Be Still (4:07)
5. Alabama Song (4:04)
6. Ragtime Piano Joe (3:43)
7. Jackie (3:14)
8. The Annual Penguin Show (4:36)
9. The Saddest Clown (4:17)
10. Vamp (5:22)
Код:
Exact Audio Copy V1.1 from 23. June 2015
EAC extraction logfile from 2. May 2020, 1:52
Peter Straker / This On's On Me
Used drive  : MATSHITADVD+-RW SW830   Adapter: 1  ID: 0
Read mode               : Secure
Utilize accurate stream : Yes
Defeat audio cache      : Yes
Make use of C2 pointers : No
Read offset correction                      : 6
Overread into Lead-In and Lead-Out          : No
Fill up missing offset samples with silence : Yes
Delete leading and trailing silent blocks   : No
Null samples used in CRC calculations       : Yes
Used interface                              : Native Win32 interface for Win NT & 2000
Used output format              : User Defined Encoder
Selected bitrate                : 768 kBit/s
Quality                         : High
Add ID3 tag                     : No
Command line compressor         : C:\Program Files (x86)\Exact Audio Copy\FLAC\FLAC.EXE
Additional command line options : -6 -V -T "ARTIST=%artist%" -T "TITLE=%title%" -T "ALBUM=%albumtitle%" -T "DATE=%year%" -T "TRACKNUMBER=%tracknr%" -T "GENRE=%genre%" -T "COMMENT=%comment%" -T "BAND=%albuminterpret%" -T "ALBUMARTIST=%albuminterpret%" -T "COMPOSER=%composer%" %haslyrics%--tag-from-file=LYRICS="%lyricsfile%"%haslyrics% -T "DISCNUMBER=%cdnumber%" -T "TOTALDISCS=%totalcds%" -T "TOTALTRACKS=%numtracks%" %hascover%--picture="%coverfile%"%hascover% %source% -o %dest%
TOC of the extracted CD
     Track |   Start  |  Length  | Start sector | End sector
    ---------------------------------------------------------
        1  |  0:00.00 |  0:34.71 |         0    |     2620
        2  |  0:34.71 |  2:46.46 |      2621    |    15116
        3  |  3:21.42 |  5:04.08 |     15117    |    37924
        4  |  8:25.50 |  4:07.04 |     37925    |    56453
        5  | 12:32.54 |  4:04.22 |     56454    |    74775
        6  | 16:37.01 |  3:43.53 |     74776    |    91553
        7  | 20:20.54 |  3:14.50 |     91554    |   106153
        8  | 23:35.29 |  4:36.73 |    106154    |   126926
        9  | 28:12.27 |  4:17.74 |    126927    |   146275
       10  | 32:30.26 |  5:22.51 |    146276    |   170476
Range status and errors
Selected range
     Filename C:\Users\Boris\Desktop\lossless-galaxy.ru\Straker3\CD1\Peter Straker - This On's On Me.wav
     Peak level 98.8 %
     Extraction speed 6.5 X
     Range quality 100.0 %
     Test CRC 1CAD257D
     Copy CRC 1CAD257D
     Copy OK
No errors occurred
AccurateRip summary
Track  1  not present in database
Track  2  not present in database
Track  3  not present in database
Track  4  not present in database
Track  5  not present in database
Track  6  not present in database
Track  7  not present in database
Track  8  not present in database
Track  9  not present in database
Track 10  not present in database
None of the tracks are present in the AccurateRip database
End of status report
---- CUETools DB Plugin V2.1.6
[CTDB TOCID: lD91bTEyU5GsVfeCjLWwWRA0s_4-] disk not present in database
Submit result: lD91bTEyU5GsVfeCjLWwWRA0s_4- has been uploaded
==== Log checksum FD24EADF130008BBEF3F7B34523927C59B4450628A474E63B7539234839EF99D ====
Код:
REM GENRE Pop
REM DATE 1977
REM DISCID 8008E10A
REM COMMENT "ExactAudioCopy v1.1"
PERFORMER "Peter Straker"
TITLE "This On's On Me"
FILE "Peter Straker - This On's On Me.flac" WAVE
  TRACK 01 AUDIO
    TITLE "1 Ada"
    PERFORMER "Peter Straker"
    INDEX 01 00:00:00
  TRACK 02 AUDIO
    TITLE "2 I've Been To Hell And Back"
    PERFORMER "Peter Straker"
    INDEX 00 00:34:61
    INDEX 01 00:34:71
  TRACK 03 AUDIO
    TITLE "3 The Day The Talkies Came"
    PERFORMER "Peter Straker"
    INDEX 01 03:21:42
  TRACK 04 AUDIO
    TITLE "4 Heart Be Still"
    PERFORMER "Peter Straker"
    INDEX 00 08:23:50
    INDEX 01 08:25:50
  TRACK 05 AUDIO
    TITLE "5 Alabama Song"
    PERFORMER "Peter Straker"
    INDEX 00 12:31:74
    INDEX 01 12:32:54
  TRACK 06 AUDIO
    TITLE "6 Ragtime Piano Joe"
    PERFORMER "Peter Straker"
    INDEX 00 16:36:12
    INDEX 01 16:37:01
  TRACK 07 AUDIO
    TITLE "7 Jackie"
    PERFORMER "Peter Straker"
    INDEX 00 20:19:43
    INDEX 01 20:20:54
  TRACK 08 AUDIO
    TITLE "8 The Annual Penguin Show"
    PERFORMER "Peter Straker"
    INDEX 01 23:35:29
  TRACK 09 AUDIO
    TITLE "9 The Saddest Clown"
    PERFORMER "Peter Straker"
    INDEX 00 28:12:26
    INDEX 01 28:12:27
  TRACK 10 AUDIO
    TITLE "10 Vamp"
    PERFORMER "Peter Straker"
    INDEX 00 32:30:21
    INDEX 01 32:30:26
Треклист:
1. D-D-D-D-D-Danger (3:39)
2. Doesn't Give A Damn (2:43)
3. Believer (4:11)
4. Sweet Sweet Music (2:23)
5. Legs (4:21)
6. Star Circus (3:49)
7. Tear Down The Walls (4:43)
8. The Fab Samba (3:32)
9. The Black Swan (5:01)
10. Talk About Me (2:05)
Bonus Track
11. Queen Of The Self-Service (2:12)
Код:
Exact Audio Copy V1.1 from 23. June 2015
EAC extraction logfile from 2. May 2020, 2:14
Peter Straker / Changeling
Used drive  : MATSHITADVD+-RW SW830   Adapter: 1  ID: 0
Read mode               : Secure
Utilize accurate stream : Yes
Defeat audio cache      : Yes
Make use of C2 pointers : No
Read offset correction                      : 6
Overread into Lead-In and Lead-Out          : No
Fill up missing offset samples with silence : Yes
Delete leading and trailing silent blocks   : No
Null samples used in CRC calculations       : Yes
Used interface                              : Native Win32 interface for Win NT & 2000
Used output format              : User Defined Encoder
Selected bitrate                : 768 kBit/s
Quality                         : High
Add ID3 tag                     : No
Command line compressor         : C:\Program Files (x86)\Exact Audio Copy\FLAC\FLAC.EXE
Additional command line options : -6 -V -T "ARTIST=%artist%" -T "TITLE=%title%" -T "ALBUM=%albumtitle%" -T "DATE=%year%" -T "TRACKNUMBER=%tracknr%" -T "GENRE=%genre%" -T "COMMENT=%comment%" -T "BAND=%albuminterpret%" -T "ALBUMARTIST=%albuminterpret%" -T "COMPOSER=%composer%" %haslyrics%--tag-from-file=LYRICS="%lyricsfile%"%haslyrics% -T "DISCNUMBER=%cdnumber%" -T "TOTALDISCS=%totalcds%" -T "TOTALTRACKS=%numtracks%" %hascover%--picture="%coverfile%"%hascover% %source% -o %dest%
TOC of the extracted CD
     Track |   Start  |  Length  | Start sector | End sector
    ---------------------------------------------------------
        1  |  0:00.00 |  3:39.07 |         0    |    16431
        2  |  3:39.07 |  2:43.00 |     16432    |    28656
        3  |  6:22.07 |  4:11.70 |     28657    |    47551
        4  | 10:34.02 |  2:23.70 |     47552    |    58346
        5  | 12:57.72 |  4:21.32 |     58347    |    77953
        6  | 17:19.29 |  3:49.68 |     77954    |    95196
        7  | 21:09.22 |  4:43.15 |     95197    |   116436
        8  | 25:52.37 |  3:32.03 |    116437    |   132339
        9  | 29:24.40 |  5:01.17 |    132340    |   154931
       10  | 34:25.57 |  2:05.39 |    154932    |   164345
       11  | 36:31.21 |  2:12.45 |    164346    |   174290
Range status and errors
Selected range
     Filename C:\Users\Boris\Desktop\lossless-galaxy.ru\Straker3\CD2\Peter Straker - Changeling.wav
     Peak level 98.8 %
     Extraction speed 4.8 X
     Range quality 99.9 %
     Test CRC B37B054E
     Copy CRC B37B054E
     Copy OK
No errors occurred
AccurateRip summary
Track  1  not present in database
Track  2  not present in database
Track  3  not present in database
Track  4  not present in database
Track  5  not present in database
Track  6  not present in database
Track  7  not present in database
Track  8  not present in database
Track  9  not present in database
Track 10  not present in database
Track 11  not present in database
None of the tracks are present in the AccurateRip database
End of status report
---- CUETools DB Plugin V2.1.6
[CTDB TOCID: 8mnRLx829RAHmbfcuxzmoQT_RnQ-] disk not present in database
Submit result: 8mnRLx829RAHmbfcuxzmoQT_RnQ- has been uploaded
==== Log checksum 11882E4BDF8D78BE060565543C6EC883BA2EDC7C630A2F0F7CC645814E946E78 ====
Код:
REM GENRE "soft rock"
REM DATE 1978
REM DISCID 8E09130B
REM COMMENT "ExactAudioCopy v1.1"
PERFORMER "Peter Straker"
TITLE "Changeling"
FILE "Peter Straker - Changeling.flac" WAVE
  TRACK 01 AUDIO
    TITLE "01 D-D-D-D-D-Danger"
    PERFORMER "Peter Straker"
    INDEX 01 00:00:00
  TRACK 02 AUDIO
    TITLE "02 Doesn't Give A Damn "
    PERFORMER "Peter Straker"
    INDEX 00 03:38:25
    INDEX 01 03:39:07
  TRACK 03 AUDIO
    TITLE "03 Believer "
    PERFORMER "Peter Straker"
    INDEX 00 06:21:64
    INDEX 01 06:22:07
  TRACK 04 AUDIO
    TITLE "04 Sweet Sweet Music"
    PERFORMER "Peter Straker"
    INDEX 00 10:33:46
    INDEX 01 10:34:02
  TRACK 05 AUDIO
    TITLE "05 Legs"
    PERFORMER "Peter Straker"
    INDEX 01 12:57:72
  TRACK 06 AUDIO
    TITLE "06 Star Circus"
    PERFORMER "Peter Straker"
    INDEX 00 17:17:54
    INDEX 01 17:19:29
  TRACK 07 AUDIO
    TITLE "07 Tear Down The Walls "
    PERFORMER "Peter Straker"
    INDEX 00 21:07:74
    INDEX 01 21:09:22
  TRACK 08 AUDIO
    TITLE "08 The Fab Samba"
    PERFORMER "Peter Straker"
    INDEX 01 25:52:37
  TRACK 09 AUDIO
    TITLE "09 The Black Swan "
    PERFORMER "Peter Straker"
    INDEX 00 29:24:38
    INDEX 01 29:24:40
  TRACK 10 AUDIO
    TITLE "10 Talk About Me"
    PERFORMER "Peter Straker"
    INDEX 01 34:25:57
  TRACK 11 AUDIO
    TITLE "11 Queen Of The Self-Service "
    PERFORMER "Peter Straker"
    INDEX 00 36:29:47
    INDEX 01 36:31:21
Треклист:
1. Late Night Taxi Dancer (5:09)
2. Nasty (4:47)
3. Possessed (2:36)
4. It Aint Easy (4:28)
5. They've Got You Dancing (4:26)
6. Wappem Bappem (1:02)
7. Illusions Confusions (3:40)
8. Melancholy (1:45)
9. Mrs Warren (3:46)
10. Real Natural Man (1:53)
Bonus Tracks
11. Zoo New (3:21)
12. I Can't Help It (3:23)
13. Taxi Dancer (7 inch) (3:39)
Код:
Exact Audio Copy V1.1 from 23. June 2015
EAC extraction logfile from 2. May 2020, 2:52
Peter Straker / Real Natural Man
Used drive  : MATSHITADVD+-RW SW830   Adapter: 1  ID: 0
Read mode               : Secure
Utilize accurate stream : Yes
Defeat audio cache      : Yes
Make use of C2 pointers : No
Read offset correction                      : 6
Overread into Lead-In and Lead-Out          : No
Fill up missing offset samples with silence : Yes
Delete leading and trailing silent blocks   : No
Null samples used in CRC calculations       : Yes
Used interface                              : Native Win32 interface for Win NT & 2000
Used output format              : User Defined Encoder
Selected bitrate                : 768 kBit/s
Quality                         : High
Add ID3 tag                     : No
Command line compressor         : C:\Program Files (x86)\Exact Audio Copy\FLAC\FLAC.EXE
Additional command line options : -6 -V -T "ARTIST=%artist%" -T "TITLE=%title%" -T "ALBUM=%albumtitle%" -T "DATE=%year%" -T "TRACKNUMBER=%tracknr%" -T "GENRE=%genre%" -T "COMMENT=%comment%" -T "BAND=%albuminterpret%" -T "ALBUMARTIST=%albuminterpret%" -T "COMPOSER=%composer%" %haslyrics%--tag-from-file=LYRICS="%lyricsfile%"%haslyrics% -T "DISCNUMBER=%cdnumber%" -T "TOTALDISCS=%totalcds%" -T "TOTALTRACKS=%numtracks%" %hascover%--picture="%coverfile%"%hascover% %source% -o %dest%
TOC of the extracted CD
     Track |   Start  |  Length  | Start sector | End sector
    ---------------------------------------------------------
        1  |  0:00.00 |  5:09.28 |         0    |    23202
        2  |  5:09.28 |  4:47.29 |     23203    |    44756
        3  |  9:56.57 |  2:36.52 |     44757    |    56508
        4  | 12:33.34 |  4:28.39 |     56509    |    76647
        5  | 17:01.73 |  4:26.50 |     76648    |    96647
        6  | 21:28.48 |  1:02.29 |     96648    |   101326
        7  | 22:31.02 |  3:40.40 |    101327    |   117866
        8  | 26:11.42 |  1:45.12 |    117867    |   125753
        9  | 27:56.54 |  3:46.05 |    125754    |   142708
       10  | 31:42.59 |  1:53.22 |    142709    |   151205
       11  | 33:36.06 |  3:21.53 |    151206    |   166333
       12  | 36:57.59 |  3:23.25 |    166334    |   181583
       13  | 40:21.09 |  3:39.43 |    181584    |   198051
Range status and errors
Selected range
     Filename C:\Users\Boris\Desktop\lossless-galaxy.ru\Straker3\CD3\Peter Straker - Real Natural Man.wav
     Peak level 98.3 %
     Extraction speed 6.7 X
     Range quality 100.0 %
     Test CRC 7DB66076
     Copy CRC 7DB66076
     Copy OK
No errors occurred
AccurateRip summary
Track  1  not present in database
Track  2  not present in database
Track  3  not present in database
Track  4  not present in database
Track  5  not present in database
Track  6  not present in database
Track  7  not present in database
Track  8  not present in database
Track  9  not present in database
Track 10  not present in database
Track 11  not present in database
Track 12  not present in database
Track 13  not present in database
None of the tracks are present in the AccurateRip database
End of status report
---- CUETools DB Plugin V2.1.6
[CTDB TOCID: mMSKBr7gXM6gI2dsRB8CssuSP2g-] database access error: The operation has timed out
==== Log checksum 8ED9B40F993875E7F373B8DB6F1E4FA34FDCAA5EA48DF24FBC881BA87C56C24B ====
Код:
REM GENRE "Soft Rock"
REM DATE 1980
REM DISCID A40A500D
REM COMMENT "ExactAudioCopy v1.1"
PERFORMER "Peter Straker"
TITLE "Real Natural Man"
FILE "Peter Straker - Real Natural Man.flac" WAVE
  TRACK 01 AUDIO
    TITLE "01 Late Night Taxi Dancer"
    PERFORMER "Peter Straker"
    INDEX 01 00:00:00
  TRACK 02 AUDIO
    TITLE "02 Nasty"
    PERFORMER "Peter Straker"
    INDEX 00 05:07:28
    INDEX 01 05:09:28
  TRACK 03 AUDIO
    TITLE "03 Possessed "
    PERFORMER "Peter Straker"
    INDEX 00 09:56:56
    INDEX 01 09:56:57
  TRACK 04 AUDIO
    TITLE "04 It Aint Easy"
    PERFORMER "Peter Straker"
    INDEX 01 12:33:34
  TRACK 05 AUDIO
    TITLE "05 They've Got You Dancing"
    PERFORMER "Peter Straker"
    INDEX 01 17:01:73
  TRACK 06 AUDIO
    TITLE "06 Wappem Bappem"
    PERFORMER "Peter Straker"
    INDEX 00 21:27:57
    INDEX 01 21:28:48
  TRACK 07 AUDIO
    TITLE "07 Illusions Confusions"
    PERFORMER "Peter Straker"
    INDEX 01 22:31:02
  TRACK 08 AUDIO
    TITLE "08 Melancholy"
    PERFORMER "Peter Straker"
    INDEX 00 26:11:39
    INDEX 01 26:11:42
  TRACK 09 AUDIO
    TITLE "09 Mrs Warren"
    PERFORMER "Peter Straker"
    INDEX 00 27:56:18
    INDEX 01 27:56:54
  TRACK 10 AUDIO
    TITLE "10 Real Natural Man"
    PERFORMER "Peter Straker"
    INDEX 01 31:42:59
  TRACK 11 AUDIO
    TITLE "11 Zoo New"
    PERFORMER "Peter Straker"
    INDEX 00 33:34:59
    INDEX 01 33:36:06
  TRACK 12 AUDIO
    TITLE "12 I Can't Help It"
    PERFORMER "Peter Straker"
    INDEX 00 36:55:22
    INDEX 01 36:57:59
  TRACK 13 AUDIO
    TITLE "13  Taxi Dancer (7 inch)"
    PERFORMER "Peter Straker"
    INDEX 00 40:19:42
    INDEX 01 40:21:09
Peter Straker - звезда кабаре сцены и экрана, долгое время бывший другом и наперсником Freddie Mercury. Выпустил три гибридных рок-поп-кабаре шедевров, которые изначально выходили между 1977 и 1980 годами, и над которыми работал поистине звездный состав.
Альбом This One's On Me, определяющий всю карьеру Peter Straker(а), имел двух сопродюсеров - Freddie Mercury и Roy Thomas Baker, кто был знаменитым продюсером классических альбомов Queen - Queen, Queen II, Sheer Heart Attack, Jazz и A Night At The Opera.
Лонгплей 1979 года Changeling стал первой полноценной ролью Tim Friese-Greene в продюсировании альбома до его становления фактическим 4-м участником Talk Talk на их известных поздних альбомах.
Альбом 1980 года Real Natural Man продюсировал Reinhold Mack, у кого в активе были работы с Queen, The Rolling Stones, The Scorpions, Deep Purple, David Coverdale и Rory Gallagher, Electric Light Orchestra и T.Rex.
Peter Straker - актер-певец, записывшийся и снимавшийся вместе с Freddie Mercury, снимавшийся в скандально известном мюзикле Hair, в оригинальном Phantom of the Opera и признанный ведущим виртуозным исполнителем песен Jacques Brel. В 1972 он подписал свой первый recording контракт с RCA месте со своим другом David Bowie, а через неделю Straker был назван Black Bowie в знак признания их аналогичной гибридной карьеры, которая вобрала кино, театр и rock-music.
Этот deluxe CD Box Set содержит три самых известных Peter Straker альбома, лучше всего отражающих разнообразие художественных интересов и творческих влияний, которые выдержали его долгую кабаре, концертную и театральную карьеру. Box Set содержит песни о золотом веке кинематографа The Day The Talkies Comed и Ragtime Piano Joe; о мракобесии шоубизнеса в The Saddest Clown, The Annual Penguin Show и Vamp, а также о стандартах кабаре Alabama Song и Jackie, и несомненным бриллиантом является Heart Be Still - сингл 1967 года, который и через 50 лет звучит актуально.
Правила, инструкции, FAQ!!!
Торрент  Добавлен [05 май 2020, 10:43] Скачать торрент Магнет ссылка
Скачать торрент
[ Размер 20.75 КБ / Просмотров 6 ]

Статус
Проверен 
 
Размер  959.14 МБ
Приватный: Нет (DHT включён)
.torrent скачан  0
 


     Отправить личное сообщение
   
Страница 1 из 1
Показать сообщения за:  Поле сортировки  
Начать новую тему Ответить на тему


Сейчас этот форум просматривают: нет зарегистрированных пользователей и гости: 0


Вы не можете начинать темы
Вы не можете отвечать на сообщения
Вы не можете редактировать свои сообщения
Вы не можете удалять свои сообщения
Вы не можете добавлять вложения

Перейти:  
cron