Начать новую тему Ответить на тему
Статистика раздачи
Размер: 275.41 МБ | Добавлен: 26 мар 2019, 22:37 | Скачали: 0
Сидеров: 0  [0 байт/сек]    Личеров: 0  [0 байт/сек]
Пред. тема | След. тема 

Автор
Сообщение

СообщениеДобавлено: 26 мар 2019, 22:37 

Ответить с цитатой 

The Housemartins - London 0 Hull 4
Жанр: Pop-Rock, Soft-Rock, Brit-Pop
Год выпуска диска: 1986
Производитель диска: UK
Аудио кодек: APE
Тип рипа: image+.cue
Битрейт аудио: Lossless
Продолжительность: 47:16
Трэклист:
01. Happy Hour
02. Get Up Off Our Knees
03. Flag Day
04. Anxious
05. Reverend's Revenge
06. Sitting On A Fence
07. Sheep
08. Over There
09. Think For A Minute
10. We're Not Deep
11. Lean On Me
12. Freedom
13. I'll Be Your Shelter (Just Like A Shelter)
14. People Get Ready
15. The Mighty Ship
16. He Aint Heavy,He's My Brother
Доп. информация:
Exact Audio Copy V0.99 prebeta 4 from 23. January 2008
Отчёт EAC об извлечении, выполненном 30. октября 2008, 20:22
Housemartins / London 0 Hull 4
Дисковод: MATSHITABD-MLT UJ-220S Adapter: 2 ID: 2
Режим чтения : Достоверность
Использование точного потока : Да
Отключение кэша аудио : Да
Использование указателей C2 : Нет
Коррекция смещения при чтении : 102
Способность читать области Lead-in и Lead-out : Нет
Заполнение пропущенных сэмплов тишиной : Да
Удаление блоков с тишиной в начале и конце : Нет
При вычислениях CRC использовались нулевые сэмплы : Да
Интерфейс : Установленный внешний ASPI-интерфейс
Выходной формат : Внутренние WAV-операции
Формат сэмплов : 44.100 Гц; 16 бит; стерео
TOC извлечённого CD
Трек | Старт | Длительность | Начальный сектор | Конечный сектор
---------------------------------------------------------------------
1 | 0:00.33 | 2:22.42 | 33 | 10724
2 | 2:23.00 | 3:22.68 | 10725 | 25942
3 | 5:45.68 | 5:25.35 | 25943 | 50352
4 | 11:11.28 | 2:19.42 | 50353 | 60819
5 | 13:30.70 | 1:27.18 | 60820 | 67362
6 | 14:58.13 | 2:58.25 | 67363 | 80737
7 | 17:56.38 | 2:17.30 | 80738 | 91042
8 | 20:13.68 | 2:58.15 | 91043 | 104407
9 | 23:12.08 | 3:30.17 | 104408 | 120174
10 | 26:42.25 | 2:15.13 | 120175 | 130312
11 | 28:57.38 | 4:28.50 | 130313 | 150462
12 | 33:26.13 | 3:20.47 | 150463 | 165509
13 | 36:46.60 | 4:54.23 | 165510 | 187582
14 | 41:41.08 | 1:42.07 | 187583 | 195239
15 | 43:23.15 | 1:53.45 | 195240 | 203759
16 | 45:16.60 | 2:06.48 | 203760 | 213257
Характеристики диапазона извлечения и сообщения об ошибках
Выбранный диапазон
Имя файла D:\Torrents\The Housemartins (London 0 Hull 4) 1986\Housemartins - London 0 Hull 4.wav
Пиковый уровень 90.6 %
Качество диапазона 100.0 %
CRC копии 5A1F6161
Копирование... OK
Ошибок не произошло
AccurateRip: сводка
Трек 1 точность не определена (достоверность 3) [C88EA0B1], AccurateRip вернул [269D8BD3]
Трек 2 точность не определена (достоверность 3) [6D147540], AccurateRip вернул [CFA029C5]
Трек 3 точность не определена (достоверность 3) [B8CCA27B], AccurateRip вернул [4D3A993F]
Трек 4 точность не определена (достоверность 3) [2DEA4EC3], AccurateRip вернул [EB5284F3]
Трек 5 точность не определена (достоверность 3) [0AAAFE13], AccurateRip вернул [76CBCE59]
Трек 6 точность не определена (достоверность 3) [D8091479], AccurateRip вернул [113A9545]
Трек 7 точность не определена (достоверность 3) [DF2CE3DC], AccurateRip вернул [4DE97F3E]
Трек 8 точность не определена (достоверность 3) [6A9CD9EC], AccurateRip вернул [B84E00D9]
Трек 9 точность не определена (достоверность 3) [89F38588], AccurateRip вернул [086650D2]
Трек 10 точность не определена (достоверность 3) [65F40EE5], AccurateRip вернул [AFE99839]
Трек 11 точность не определена (достоверность 3) [5DC27F7F], AccurateRip вернул [34BC0F55]
Трек 12 точность не определена (достоверность 3) [0B58D7FB], AccurateRip вернул [77331DA0]
Трек 13 точность не определена (достоверность 3) [BD51C476], AccurateRip вернул [57FA4BD1]
Трек 14 точность не определена (достоверность 3) [0DE0AD1F], AccurateRip вернул [34C3199F]
Трек 15 точность не определена (достоверность 3) [E3E9E8D9], AccurateRip вернул [F63355DA]
Трек 16 точность не определена (достоверность 3) [791BE945], AccurateRip вернул [27CF5335]
Ни один трек не прошёл проверки на точность
В вашей базе может быть иной вариант штамповки диска
Конец отчёта
About The Housemartins
Коврики 300dpi в комплекте.
Правила, инструкции, FAQ!!!
Торрент  Добавлен [26 мар 2019, 22:37] Скачать торрент Магнет ссылка
Скачать торрент
[ Размер 22.74 КБ / Просмотров 1 ]

Статус
Проверен 
 
Размер  275.41 МБ
Приватный: Нет (DHT включён)
.torrent скачан  0
 


     Отправить личное сообщение
   
Страница 1 из 1
Показать сообщения за:  Поле сортировки  
Начать новую тему Ответить на тему


Сейчас этот форум просматривают: нет зарегистрированных пользователей и гости: 0


Вы не можете начинать темы
Вы не можете отвечать на сообщения
Вы не можете редактировать свои сообщения
Вы не можете удалять свои сообщения
Вы не можете добавлять вложения

Перейти:  
cron