Начать новую тему Ответить на тему
Статистика раздачи
Размер: 307.69 МБ | Добавлен: 26 мар 2019, 20:41 | Скачали: 0
Сидеров: 0  [0 байт/сек]    Личеров: 0  [0 байт/сек]
Пред. тема | След. тема 

Автор
Сообщение

СообщениеДобавлено: 26 мар 2019, 20:41 

Ответить с цитатой 

Ocean Colour Scene / Mechanical Wonder
Жанр: Pop-Rock & Soft Rock, Brit Pop
Год издания диска: 2001
Издатель (лейбл): ARK 21
Номер по каталогу: 810072
Страна: Англия
Аудио кодек: FLAC (*.flac)
Тип рипа: tracks+.cue
Битрейт аудио: lossless
Продолжительность: 42:54
Источник (релизер): CD
Наличие сканов в содержимом раздачи: да
Треклист:
01. Up On The Downside [05:01]
02. In My Field [03:51]
03. Sail On My Boat [03:18]
04. Biggest Thing [04:53]
05. We Made It More [04:44]
06. Give Me A Letter [02:23]
07. Mechanical Wonder [04:50]
08. Are You Amazing [03:29]
09. If I Gave You My Heart [03:52]
10. Can't Get Back To The Baseline [03:50]
11. Something For Me [02:40]
Код:
Exact Audio Copy V1.0 beta 1 from 15. November 2010
EAC extraction logfile from 24. December 2010, 22:28
Ocean Colour Scene / Mechanical Wonder
Used drive  : ASUS    DRW-22B2L   Adapter: 3  ID: 0
Read mode               : Secure
Utilize accurate stream : Yes
Defeat audio cache      : Yes
Make use of C2 pointers : No
Read offset correction                      : 6
Overread into Lead-In and Lead-Out          : No
Fill up missing offset samples with silence : Yes
Delete leading and trailing silent blocks   : No
Null samples used in CRC calculations       : Yes
Used interface                              : Native Win32 interface for Win NT & 2000
Gap handling                                : Appended to previous track
Used output format              : User Defined Encoder
Selected bitrate                : 128 kBit/s
Quality                         : High
Add ID3 tag                     : No
Command line compressor         : E:\Програмы\Музыка - Видео\Exact Audio Copy 1.0 beta 1\Flac\flac.exe
Additional command line options : -8 -V -T "ARTIST=%a" -T "TITLE=%t" -T "ALBUM=%g" -T "DATE=%y" -T "TRACKNUMBER=%n" -T "GENRE=%m" -T "COMMENT=EAC FLAC -8" %s
TOC of the extracted CD
     Track |   Start  |  Length  | Start sector | End sector
    ---------------------------------------------------------
        1  |  0:00.00 |  5:01.25 |         0    |    22599
        2  |  5:01.25 |  3:51.05 |     22600    |    39929
        3  |  8:52.30 |  3:18.00 |     39930    |    54779
        4  | 12:10.30 |  4:53.62 |     54780    |    76816
        5  | 17:04.17 |  4:44.65 |     76817    |    98181
        6  | 21:49.07 |  2:23.40 |     98182    |   108946
        7  | 24:12.47 |  4:50.43 |    108947    |   130739
        8  | 29:03.15 |  3:29.65 |    130740    |   146479
        9  | 32:33.05 |  3:52.35 |    146480    |   163914
       10  | 36:25.40 |  3:50.37 |    163915    |   181201
       11  | 40:16.02 |  2:38.70 |    181202    |   193121
Track  1
     Filename E:\01. Up On The Downside.wav
     Pre-gap length  0:00:02.00
     Peak level 99.4 %
     Extraction speed 3.5 X
     Track quality 100.0 %
     Test CRC BC457E85
     Copy CRC BC457E85
     Accurately ripped (confidence 2)  [EC009FA2]
     Copy OK
Track  2
     Filename E:\02. In My Field.wav
     Peak level 98.6 %
     Extraction speed 3.8 X
     Track quality 100.0 %
     Test CRC D0435ED7
     Copy CRC D0435ED7
     Accurately ripped (confidence 2)  [6ABA9A64]
     Copy OK
Track  3
     Filename E:\03. Sail On My Boat.wav
     Peak level 98.6 %
     Extraction speed 4.0 X
     Track quality 100.0 %
     Test CRC 9E9F8A0D
     Copy CRC 9E9F8A0D
     Accurately ripped (confidence 2)  [3F0CB5F6]
     Copy OK
Track  4
     Filename E:\04. Biggest Thing.wav
     Peak level 95.1 %
     Extraction speed 4.6 X
     Track quality 100.0 %
     Test CRC 7372528B
     Copy CRC 7372528B
     Accurately ripped (confidence 2)  [26319F90]
     Copy OK
Track  5
     Filename E:\05. We Made It More.wav
     Pre-gap length  0:00:00.40
     Peak level 95.1 %
     Extraction speed 4.9 X
     Track quality 100.0 %
     Test CRC BB985B02
     Copy CRC BB985B02
     Accurately ripped (confidence 2)  [13F796FF]
     Copy OK
Track  6
     Filename E:\06. Give Me A Letter.wav
     Peak level 98.6 %
     Extraction speed 4.6 X
     Track quality 100.0 %
     Test CRC BB0E044B
     Copy CRC BB0E044B
     Accurately ripped (confidence 2)  [210ADBC1]
     Copy OK
Track  7
     Filename E:\07. Mechanical Wonder.wav
     Peak level 99.6 %
     Extraction speed 4.4 X
     Track quality 99.9 %
     Test CRC B1E8A033
     Copy CRC B1E8A033
     Accurately ripped (confidence 2)  [D3229930]
     Copy OK
Track  8
     Filename E:\08. You Are Amazing.wav
     Peak level 98.6 %
     Extraction speed 4.1 X
     Track quality 99.9 %
     Test CRC CCE5655E
     Copy CRC CCE5655E
     Accurately ripped (confidence 2)  [4ACD773C]
     Copy OK
Track  9
     Filename E:\09. If I Gave You My Heart.wav
     Peak level 98.6 %
     Extraction speed 5.5 X
     Track quality 100.0 %
     Test CRC 1E2CAD67
     Copy CRC 1E2CAD67
     Accurately ripped (confidence 2)  [CB5A71E3]
     Copy OK
Track 10
     Filename E:\10. Can't Get Back To The Baseline.wav
     Peak level 99.6 %
     Extraction speed 5.8 X
     Track quality 100.0 %
     Test CRC F2C6606E
     Copy CRC F2C6606E
     Accurately ripped (confidence 2)  [A2A16DB6]
     Copy OK
Track 11
     Filename E:\11. Something For Me.wav
     Peak level 97.1 %
     Extraction speed 5.6 X
     Track quality 100.0 %
     Test CRC C5241256
     Copy CRC C5241256
     Accurately ripped (confidence 2)  [FA160521]
     Copy OK
All tracks accurately ripped
No errors occurred
End of status report
==== Log checksum A094E12EA62F9D9F7C0BCD69790A264F8540CAF6B3D630D2C7B620A4BF70A059 ====
Код:
REM GENRE BritPop
REM DATE 2001
REM DISCID 830A0E0B
REM COMMENT "ExactAudioCopy v1.0b1"
PERFORMER "Ocean Colour Scene"
TITLE "Mechanical Wonder"
FILE "01. Up On The Downside.wav" WAVE
  TRACK 01 AUDIO
    TITLE "Up On The Downside"
    PERFORMER "Ocean Colour Scene"
    INDEX 01 00:00:00
FILE "02. In My Field.wav" WAVE
  TRACK 02 AUDIO
    TITLE "In My Field"
    PERFORMER "Ocean Colour Scene"
    INDEX 01 00:00:00
FILE "03. Sail On My Boat.wav" WAVE
  TRACK 03 AUDIO
    TITLE "Sail On My Boat"
    PERFORMER "Ocean Colour Scene"
    INDEX 01 00:00:00
FILE "04. Biggest Thing.wav" WAVE
  TRACK 04 AUDIO
    TITLE "Biggest Thing"
    PERFORMER "Ocean Colour Scene"
    INDEX 01 00:00:00
  TRACK 05 AUDIO
    TITLE "We Made It More"
    PERFORMER "Ocean Colour Scene"
    INDEX 00 04:53:32
FILE "05. We Made It More.wav" WAVE
    INDEX 01 00:00:00
FILE "06. Give Me A Letter.wav" WAVE
  TRACK 06 AUDIO
    TITLE "Give Me A Letter"
    PERFORMER "Ocean Colour Scene"
    INDEX 01 00:00:00
FILE "07. Mechanical Wonder.wav" WAVE
  TRACK 07 AUDIO
    TITLE "Mechanical Wonder"
    PERFORMER "Ocean Colour Scene"
    INDEX 01 00:00:00
FILE "08. You Are Amazing.wav" WAVE
  TRACK 08 AUDIO
    TITLE "You Are Amazing"
    PERFORMER "Ocean Colour Scene"
    INDEX 01 00:00:00
FILE "09. If I Gave You My Heart.wav" WAVE
  TRACK 09 AUDIO
    TITLE "If I Gave You My Heart"
    PERFORMER "Ocean Colour Scene"
    INDEX 01 00:00:00
FILE "10. Can't Get Back To The Baseline.wav" WAVE
  TRACK 10 AUDIO
    TITLE "Can't Get Back To The Baseline"
    PERFORMER "Ocean Colour Scene"
    INDEX 01 00:00:00
FILE "11. Something For Me.wav" WAVE
  TRACK 11 AUDIO
    TITLE "Something For Me"
    PERFORMER "Ocean Colour Scene"
    INDEX 01 00:00:00
Правила, инструкции, FAQ!!!
Торрент  Добавлен [26 мар 2019, 20:41] Скачать торрент Магнет ссылка
Скачать торрент
[ Размер 14.23 КБ / Просмотров 0 ]

Статус
Проверен 
 
Размер  307.69 МБ
Приватный: Нет (DHT включён)
.torrent скачан  0
 


     Отправить личное сообщение
   
Страница 1 из 1
Показать сообщения за:  Поле сортировки  
Начать новую тему Ответить на тему


Сейчас этот форум просматривают: нет зарегистрированных пользователей и гости: 0


Вы не можете начинать темы
Вы не можете отвечать на сообщения
Вы не можете редактировать свои сообщения
Вы не можете удалять свои сообщения
Вы не можете добавлять вложения

Перейти:  
cron