Начать новую тему Ответить на тему
Статистика раздачи
Размер: 362.72 МБ | Добавлен: 26 мар 2019, 21:08 | Скачали: 0
Сидеров: 0  [0 байт/сек]    Личеров: 0  [0 байт/сек]
Пред. тема | След. тема 

Автор
Сообщение

СообщениеДобавлено: 26 мар 2019, 21:08 

Ответить с цитатой 

Paul Carrack - Still Groovin
Жанр: Pop-Rock & Soft Rock /Blue-Eyed Soul
Год выпуска диска: 2002
Производитель диска: Made In UK
Аудио кодек: APE
Тип рипа: image+.cue
Битрейт аудио: lossless
Продолжительность: 00:54:24
Трэклист:

1. Harvest for the World
2. Sunny
3. To Busy Thinkin' Bout My Baby
4. Crazy Love
5. Baby I Need Your Lovin'
6. Walk on By
7. What Does It Take
8. Anyday Now
9. Cover Me
10. With You in Mind
11. Ain't No Sunshine
12. Groovin'
13. You've Got a Friend
14. Into the Mystic
15. People Get Ready
16. Warm and Tender Love
17. It's Growing
18. I Wish it Would Rain

Paul Carrack - keyboards, guitar and vocals
BAND MEMBERS:
Paul Copley - keyboards and vocals
Lindsay Dracass - backing vocals
Dean Dukes - drums
Jeremy Meek - bass
John Robinson - guitar
Steve Beighton - saxophone

Exact Audio Copy V0.99 prebeta 4 from 23. January 2008
Отчёт EAC об извлечении, выполненном 13. октября 2009, 11:52
Paul Carrack / Still Groovin
Дисковод: PLEXTOR DVDR PX-800A Adapter: 0 ID: 0
Режим чтения : Достоверность
Использование точного потока : Да
Отключение кэша аудио : Да
Использование указателей C2 : Нет
Коррекция смещения при чтении : 48
Способность читать области Lead-in и Lead-out : Нет
Заполнение пропущенных сэмплов тишиной : Да
Удаление блоков с тишиной в начале и конце : Нет
При вычислениях CRC использовались нулевые сэмплы : Да
Интерфейс : Встроенный Win32-интерфейс для Win NT/2000
Выходной формат : Внутренние WAV-операции
Формат сэмплов : 44.100 Гц; 16 бит; стерео
TOC извлечённого CD
Трек | Старт | Длительность | Начальный сектор | Конечный сектор
---------------------------------------------------------------------
1 | 0:00.00 | 3:10.67 | 0 | 14316
2 | 3:10.67 | 3:17.28 | 14317 | 29119
3 | 6:28.20 | 3:17.34 | 29120 | 43928
4 | 9:45.54 | 2:42.06 | 43929 | 56084
5 | 12:27.60 | 2:51.01 | 56085 | 68910
6 | 15:18.61 | 2:48.37 | 68911 | 81547
7 | 18:07.23 | 2:51.41 | 81548 | 94413
8 | 20:58.64 | 3:39.33 | 94414 | 110871
9 | 24:38.22 | 2:35.37 | 110872 | 122533
10 | 27:13.59 | 3:29.70 | 122534 | 138278
11 | 30:43.54 | 2:28.55 | 138279 | 149433
12 | 33:12.34 | 2:43.15 | 149434 | 161673
13 | 35:55.49 | 3:19.72 | 161674 | 176670
14 | 39:15.46 | 3:38.36 | 176671 | 193056
15 | 42:54.07 | 2:34.56 | 193057 | 204662
16 | 45:28.63 | 3:16.32 | 204663 | 219394
17 | 48:45.20 | 2:48.66 | 219395 | 232060
18 | 51:34.11 | 2:50.36 | 232061 | 244846
Характеристики диапазона извлечения и сообщения об ошибках
Выбранный диапазон
Имя файла D:\Lossless\Paul Carrack - Still Groovin' - 2002 (CD-DVD)\CD\Paul Carrack - Still Groovin.wav
Пиковый уровень 99.4 %
Качество диапазона 100.0 %
CRC копии 0C9962CE
Копирование... OK
Ошибок не произошло
Конец отчёта
Рип с фирменного диска
Правила, инструкции, FAQ!!!
Торрент  Добавлен [26 мар 2019, 21:08] Скачать торрент Магнет ссылка
Скачать торрент
[ Размер 15.15 КБ / Просмотров 1 ]

Статус
Проверен 
 
Размер  362.72 МБ
Приватный: Нет (DHT включён)
.torrent скачан  0
 


     Отправить личное сообщение
   
Страница 1 из 1
Показать сообщения за:  Поле сортировки  
Начать новую тему Ответить на тему


Сейчас этот форум просматривают: нет зарегистрированных пользователей и гости: 0


Вы не можете начинать темы
Вы не можете отвечать на сообщения
Вы не можете редактировать свои сообщения
Вы не можете удалять свои сообщения
Вы не можете добавлять вложения

Перейти:  
cron