Начать новую тему Ответить на тему
Статистика раздачи
Размер: 325.56 МБ | Добавлен: 26 мар 2019, 21:08 | Скачали: 0
Сидеров: 0  [0 байт/сек]    Личеров: 0  [0 байт/сек]
Пред. тема | След. тема 

Автор
Сообщение

СообщениеДобавлено: 26 мар 2019, 21:08 

Ответить с цитатой 

Paul Carrack - Beautiful World
Жанр: Pop-Rock & Soft Rock /Blue-Eyed Soul
Год выпуска диска: 1997
Производитель диска: Holland
Аудио кодек: APE
Тип рипа: image+.cue
Битрейт аудио: lossless
Продолжительность: 00:46:31
Трэклист:

1. Let The Chips Fall Where They May
2. Time To Let Go
3. Beautiful World
4. Perfect Love
5. You Give Me Something
6. Satisfied
7. Close To Me
8. It Goes Without Saying
9. If You'd Ever Needed Someone
10. Some Kinda Love

Доп. информация:
Exact Audio Copy V0.99 prebeta 4 from 23. January 2008
Отчёт EAC об извлечении, выполненном 22. июня 2009, 14:00
Paul Carrack / Beautiful World
Дисковод: PLEXTOR DVDR PX-800A Adapter: 0 ID: 0
Режим чтения : Достоверность
Использование точного потока : Да
Отключение кэша аудио : Да
Использование указателей C2 : Нет
Коррекция смещения при чтении : 48
Способность читать области Lead-in и Lead-out : Нет
Заполнение пропущенных сэмплов тишиной : Да
Удаление блоков с тишиной в начале и конце : Нет
При вычислениях CRC использовались нулевые сэмплы : Да
Интерфейс : Установленный внешний ASPI-интерфейс
Выходной формат : Внутренние WAV-операции
Формат сэмплов : 44.100 Гц; 16 бит; стерео
TOC извлечённого CD
Трек | Старт | Длительность | Начальный сектор | Конечный сектор
---------------------------------------------------------------------
1 | 0:00.00 | 4:40.00 | 0 | 20999
2 | 4:40.00 | 5:16.00 | 21000 | 44699
3 | 9:56.00 | 5:32.00 | 44700 | 69599
4 | 15:28.00 | 4:08.27 | 69600 | 88226
5 | 19:36.27 | 4:01.63 | 88227 | 106364
6 | 23:38.15 | 4:19.22 | 106365 | 125811
7 | 27:57.37 | 5:05.48 | 125812 | 148734
8 | 33:03.10 | 4:59.20 | 148735 | 171179
9 | 38:02.30 | 4:46.45 | 171180 | 192674
10 | 42:49.00 | 3:42.70 | 192675 | 209394
Характеристики диапазона извлечения и сообщения об ошибках
Выбранный диапазон
Имя файла D:\Lossless\Paul Carrack - Beautiful world\Paul Carrack - Beautiful World.wav
Пиковый уровень 100.0 %
Качество диапазона 100.0 %
CRC копии 36808ACF
Копирование... OK
Ошибок не произошло
Конец отчёта
Рип с фирменного диска
Правила, инструкции, FAQ!!!
Торрент  Добавлен [26 мар 2019, 21:08] Скачать торрент Магнет ссылка
Скачать торрент
[ Размер 13.65 КБ / Просмотров 1 ]

Статус
Проверен 
 
Размер  325.56 МБ
Приватный: Нет (DHT включён)
.torrent скачан  0
 


     Отправить личное сообщение
   
Страница 1 из 1
Показать сообщения за:  Поле сортировки  
Начать новую тему Ответить на тему


Сейчас этот форум просматривают: нет зарегистрированных пользователей и гости: 0


Вы не можете начинать темы
Вы не можете отвечать на сообщения
Вы не можете редактировать свои сообщения
Вы не можете удалять свои сообщения
Вы не можете добавлять вложения

Перейти:  
cron