Начать новую тему Ответить на тему
Статистика раздачи
Размер: 314.86 МБ | Добавлен: 26 мар 2019, 21:07 | Скачали: 0
Сидеров: 4  [0 байт/сек]    Личеров: 1  [0 байт/сек]
Пред. тема | След. тема 

Автор
Сообщение

СообщениеДобавлено: 26 мар 2019, 21:07 

Ответить с цитатой 

Billy Joel - Streetlife Serenade (1974)
Жанр: Pop Rock, Soft Rock
Носитель: CD
Год издания: 2015
Издатель (лейбл): Audio Fidelity
Номер по каталогу: AFZ5 207
Аудиокодек: FLAC (*.flac)
Тип рипа: image+.cue
Битрейт аудио: lossless
Продолжительность: 38:00
Rip by flac jacket
Наличие сканов в содержимом раздачи: да
Треклист:
01. Streetlife Serenader (5:20)
02. Los Angelenos (3:42)
03. The Great Suburban Showdown (3:46)
04. Root Beer Rag (3:03)
05. Roberta (4:36)
06. The Entertainer (3:41)
07. Last Of The Big Time Spenders (4:36)
08. Weekend Song (3:32)
09. Souvenir (2:00)
10. The Mexican Connection (3:45)
 
Код:
Exact Audio Copy V1.0 beta 2 from 29. April 2011
EAC extraction logfile from 14. May 2015, 13:52
Billy Joel / Streetlife Serenade [2015 Audio Fidelity SACD AFZ5 207]
Used drive  : HL-DT-STBD-RE  BH14NS40   Adapter: 0  ID: 2
Read mode               : Secure
Utilize accurate stream : Yes
Defeat audio cache      : Yes
Make use of C2 pointers : No
Read offset correction                      : 6
Overread into Lead-In and Lead-Out          : No
Fill up missing offset samples with silence : Yes
Delete leading and trailing silent blocks   : No
Null samples used in CRC calculations       : Yes
Used interface                              : Native Win32 interface for Win NT & 2000
Used output format              : User Defined Encoder
Selected bitrate                : 1024 kBit/s
Quality                         : High
Add ID3 tag                     : No
Command line compressor         : C:\Program Files (x86)\Exact Audio Copy\Flac\flac.exe
Additional command line options : -V -5 -T "artist=%albumartist%" -T "title=%title%" -T "album=%albumtitle%" -T "date=%year%" -T "genre=%genre%" -T "tracknumber=%tracknr%" %source%
TOC of the extracted CD
     Track |   Start  |  Length  | Start sector | End sector
    ---------------------------------------------------------
        1  |  0:00.00 |  5:19.52 |         0    |    23976
        2  |  5:19.52 |  3:42.29 |     23977    |    40655
        3  |  9:02.06 |  3:46.21 |     40656    |    57626
        4  | 12:48.27 |  3:03.17 |     57627    |    71368
        5  | 15:51.44 |  4:35.41 |     71369    |    92034
        6  | 20:27.10 |  3:41.04 |     92035    |   108613
        7  | 24:08.14 |  4:35.44 |    108614    |   129282
        8  | 28:43.58 |  3:31.47 |    129283    |   145154
        9  | 32:15.30 |  2:00.28 |    145155    |   154182
       10  | 34:15.58 |  3:44.42 |    154183    |   171024
Range status and errors
Selected range
     Filename C:\EAC\Billy Joel - (1974) Streetlife Serenade [2015 Audio Fidelity SACD AFZ5 207]\Billy Joel - Streetlife Serenade [2015 Audio Fidelity SACD AFZ5 207].wav
     Peak level 100.0 %
     Extraction speed 4.3 X
     Range quality 100.0 %
     Test CRC 65F6DD60
     Copy CRC 65F6DD60
     Copy OK
No errors occurred
AccurateRip summary
Track  1  not present in database
Track  2  not present in database
Track  3  not present in database
Track  4  not present in database
Track  5  not present in database
Track  6  not present in database
Track  7  not present in database
Track  8  not present in database
Track  9  not present in database
Track 10  not present in database
None of the tracks are present in the AccurateRip database
End of status report
==== Log checksum A2597FA6C85D55F097A61617C06A65ABA54ABFA4C1E490D2A2BF94717DC98461 ====
Код:
REM GENRE Rock
REM DATE 1974
REM DISCID 7D08E80A
REM COMMENT "ExactAudioCopy v1.0b2"
PERFORMER "Billy Joel"
TITLE "Streetlife Serenade [2015 Audio Fidelity SACD AFZ5 207]"
FILE "Billy Joel - Streetlife Serenade [2015 Audio Fidelity SACD AFZ5 207].flac" WAVE
  TRACK 01 AUDIO
    TITLE "Streetlife Serenader"
    PERFORMER "Billy Joel"
    INDEX 01 00:00:00
  TRACK 02 AUDIO
    TITLE "Los Angelenos"
    PERFORMER "Billy Joel"
    INDEX 00 05:19:31
    INDEX 01 05:19:52
  TRACK 03 AUDIO
    TITLE "The Great Suburban Showdown"
    PERFORMER "Billy Joel"
    INDEX 00 09:01:67
    INDEX 01 09:02:06
  TRACK 04 AUDIO
    TITLE "Root Beer Rag"
    PERFORMER "Billy Joel"
    INDEX 00 12:48:06
    INDEX 01 12:48:27
  TRACK 05 AUDIO
    TITLE "Roberta"
    PERFORMER "Billy Joel"
    INDEX 00 15:50:12
    INDEX 01 15:51:44
  TRACK 06 AUDIO
    TITLE "The Entertainer"
    PERFORMER "Billy Joel"
    INDEX 00 20:26:64
    INDEX 01 20:27:10
  TRACK 07 AUDIO
    TITLE "Last Of The Big Time Spenders"
    PERFORMER "Billy Joel"
    INDEX 00 24:07:68
    INDEX 01 24:08:14
  TRACK 08 AUDIO
    TITLE "Weekend Song"
    PERFORMER "Billy Joel"
    INDEX 00 28:43:37
    INDEX 01 28:43:58
  TRACK 09 AUDIO
    TITLE "Souvenir"
    PERFORMER "Billy Joel"
    INDEX 00 32:15:09
    INDEX 01 32:15:30
  TRACK 10 AUDIO
    TITLE "The Mexican Connection"
    PERFORMER "Billy Joel"
    INDEX 00 34:15:37
    INDEX 01 34:15:58
Правила, инструкции, FAQ!!!
Торрент  Добавлен [26 мар 2019, 21:07] Скачать торрент Магнет ссылка
Скачать торрент
[ Размер 7.63 КБ / Просмотров 5 ]

Статус
Проверен 
 
Размер  314.86 МБ
Приватный: Нет (DHT включён)
.torrent скачан  0
 


     Отправить личное сообщение
   
Страница 1 из 1
Показать сообщения за:  Поле сортировки  
Начать новую тему Ответить на тему


Сейчас этот форум просматривают: нет зарегистрированных пользователей и гости: 0


Вы не можете начинать темы
Вы не можете отвечать на сообщения
Вы не можете редактировать свои сообщения
Вы не можете удалять свои сообщения
Вы не можете добавлять вложения

Перейти:  
cron