Начать новую тему Ответить на тему
Статистика раздачи
Размер: 480.4 МБ | Добавлен: 26 мар 2019, 20:01 | Скачали: 0
Сидеров: 0  [0 байт/сек]    Личеров: 0  [0 байт/сек]
Пред. тема | След. тема 

Автор
Сообщение

СообщениеДобавлено: 26 мар 2019, 20:01 

Ответить с цитатой 

Bay City Rollers - golden collection 2000
Жанр: Pop rock & soft rock
Год выпуска диска: 2000
Производитель диска: UK
Аудио кодек: FLAC
Тип рипа: image+.cue
Продолжительность: 1:20:03
Трэклист:
01. remember (sha-la-la) - 3:10;
02. summerlove sensation - 3:38;
03. please stay - 3:52;
04. shang-a-lang - 3:05;
05. saturday night - 2:56;
06. hey beautiful dreamer - 3:49;
07. the disco kid - 3:16;
08. angel baby - 3:50;
09. let's go - 3:26;
10. marlina - 2:59;
11. I only wanna dance with you - 2:57;
12. wouldn't you like it - 3:12;
13. maybe I'm a full to love you - 3:54;
14. to young to rock 'n' roll - 2:15;
15. eagles fly - 3:02;
16. rock 'n' roller - 3:24;
17. yesterday's hero - 4:31;
18. my lisa - 3:34;
19. rock 'n' roll love letter - 2:55;
20. money honey - 3:16;
21. write a letter - 3:46;
22. It's a game - 3:00;
23. you made me believe in magic - 2:42;
24. dance dance dance - 3:33.
Доп. информация:
Original Release Date: 2000 EMI UK Ltd.
Данный рип сделан мной собственноручно с применением технологии ЕАС с пиратской копии диска изготовленной способом штамповки. К сожалению другого варианта CD не нашел. С рипом никаких действий не производилось, и я его выложил как есть. Имеются копии всех вкладышей, обложки диска и самого CD.
Exact Audio Copy V0.99 prebeta 5 from 4. May 2009
Отчёт EAC об извлечении, выполненном 21. августа 2009, 23:17
Bay City Rollers / golden collection 2000
Дисковод: _NEC DVD_RW ND-4551A Adapter: 0 ID: 2
Режим чтения : Достоверность
Использование точного потока : Да
Отключение кэша аудио : Да
Использование указателей C2 : Нет
Коррекция смещения при чтении : 48
Способность читать области Lead-in и Lead-out : Нет
Заполнение пропущенных сэмплов тишиной : Да
Удаление блоков с тишиной в начале и конце : Нет
При вычислениях CRC использовались нулевые сэмплы : Да
Интерфейс : Встроенный Win32-интерфейс для Win NT/2000
Выходной формат : Пользовательский кодировщик
Выбранный битрейт : 768 kBit/s
Качество : Высокий
Добавление ID3-тэга : Нет
Утилита сжатия : C:\Program Files\Exact Audio Copy\FLAC\FLAC.EXE
Дополнительные параметры : -8 -V -T "ARTIST=%a" -T "TITLE=%t" -T "ALBUM=%g" -T "DATE=%y" -T "TRACKNUMBER=%n" -T "GENRE=%m" -T "COMMENT=%e" %s -o %d
TOC извлечённого CD
Трек | Старт | Длительность | Начальный сектор | Конечный сектор
---------------------------------------------------------------------
1 | 0:00.00 | 3:10.36 | 0 | 14285
2 | 3:10.36 | 3:38.14 | 14286 | 30649
3 | 6:48.50 | 3:52.24 | 30650 | 48073
4 | 10:40.74 | 3:05.43 | 48074 | 61991
5 | 13:46.42 | 2:55.50 | 61992 | 75166
6 | 16:42.17 | 3:49.38 | 75167 | 92379
7 | 20:31.55 | 3:15.50 | 92380 | 107054
8 | 23:47.30 | 3:49.40 | 107055 | 124269
9 | 27:36.70 | 3:26.14 | 124270 | 139733
10 | 31:03.09 | 2:58.56 | 139734 | 153139
11 | 34:01.65 | 2:57.39 | 153140 | 166453
12 | 36:59.29 | 3:12.35 | 166454 | 180888
13 | 40:11.64 | 3:53.60 | 180889 | 198423
14 | 44:05.49 | 2:15.27 | 198424 | 208575
15 | 46:21.01 | 3:01.63 | 208576 | 222213
16 | 49:22.64 | 3:23.52 | 222214 | 237490
17 | 52:46.41 | 4:31.09 | 237491 | 257824
18 | 57:17.50 | 3:33.48 | 257825 | 273847
19 | 60:51.23 | 2:54.40 | 273848 | 286937
20 | 63:45.63 | 3:15.67 | 286938 | 301629
21 | 67:01.55 | 3:46.22 | 301630 | 318601
22 | 70:48.02 | 2:59.40 | 318602 | 332066
23 | 73:47.42 | 2:42.17 | 332067 | 344233
24 | 76:29.59 | 3:33.04 | 344234 | 360212
Характеристики диапазона извлечения и сообщения об ошибках
Выбранный диапазон
Имя файла C:\1\EAC\Bay City Rollers - golden collection 2000.wav
Пиковый уровень 93.3 %
Качество диапазона 100.0 %
CRC теста 21275132
CRC копии 21275132
Копирование... OK
Ошибок не произошло
AccurateRip: сводка
Трек 1 нет в базе данных
Трек 2 нет в базе данных
Трек 3 нет в базе данных
Трек 4 нет в базе данных
Трек 5 нет в базе данных
Трек 6 нет в базе данных
Трек 7 нет в базе данных
Трек 8 нет в базе данных
Трек 9 нет в базе данных
Трек 10 нет в базе данных
Трек 11 нет в базе данных
Трек 12 нет в базе данных
Трек 13 нет в базе данных
Трек 14 нет в базе данных
Трек 15 нет в базе данных
Трек 16 нет в базе данных
Трек 17 нет в базе данных
Трек 18 нет в базе данных
Трек 19 нет в базе данных
Трек 20 нет в базе данных
Трек 21 нет в базе данных
Трек 22 нет в базе данных
Трек 23 нет в базе данных
Трек 24 нет в базе данных
Ни одного трека нет в базе AccurateRip
Конец отчёта
Правила, инструкции, FAQ!!!
Торрент  Добавлен [26 мар 2019, 20:01] Скачать торрент Магнет ссылка
Скачать торрент
[ Размер 19.73 КБ / Просмотров 7 ]

Статус
Проверен 
 
Размер  480.4 МБ
Приватный: Нет (DHT включён)
.torrent скачан  0
 


     Отправить личное сообщение
   
Страница 1 из 1
Показать сообщения за:  Поле сортировки  
Начать новую тему Ответить на тему


Сейчас этот форум просматривают: нет зарегистрированных пользователей и гости: 0


Вы не можете начинать темы
Вы не можете отвечать на сообщения
Вы не можете редактировать свои сообщения
Вы не можете удалять свои сообщения
Вы не можете добавлять вложения

Перейти:  
cron