Начать новую тему Ответить на тему
Статистика раздачи
Размер: 1.31 ГБ | Добавлен: 26 мар 2019, 20:28 | Скачали: 0
Сидеров: 1  [0 байт/сек]    Личеров: 0  [0 байт/сек]
Пред. тема | След. тема 

Автор
Сообщение

СообщениеДобавлено: 26 мар 2019, 20:28 

Ответить с цитатой 

God Street Wine / 3 альбома
Жанр: Pop-Rock & Soft Rock, Alternative, Jam
Год издания диска: 1992-1995
Издатель (лейбл): Ripe & Ready, Geffen, Mercury
Номер по каталогу: 2201 / GEFD-24720 / 532146
Страна: Америка, Нью-Йорк
Аудио кодек: FLAC (*.flac)
Тип рипа: tracks+.cue
Битрейт аудио: lossless
Продолжительность: 3:18:45
Источник (релизер): CD
Наличие сканов в содержимом раздачи: да
Треклист:
#7771. "Nightingale" – 5:48
2. "Goodnight Gretchen" – 6:46
3. "Feel the Pressure" (Pifer) – 5:54
4. "Waiting for the Tide" – 6:25
5. "Fortress of Solitude" – 7:14
6. "Upside Down + Inside Out" – 4:46
7. "Borderline" – 5:02
8. "Better Than You" – 4:49
9. "Hellfire" – 5:22
10. "One Armed Man" (God Street Wine) – 7:07
11. "Home Again" – 4:27
12. "Epilog" – 7:29
Код:
Exact Audio Copy V1.0 beta 1 from 15. November 2010
EAC extraction logfile from 5. April 2011, 14:05
God Street Wine / Bag
Used drive  : ASUS    DRW-22B2L   Adapter: 3  ID: 0
Read mode               : Secure
Utilize accurate stream : Yes
Defeat audio cache      : Yes
Make use of C2 pointers : No
Read offset correction                      : 6
Overread into Lead-In and Lead-Out          : No
Fill up missing offset samples with silence : Yes
Delete leading and trailing silent blocks   : No
Null samples used in CRC calculations       : Yes
Used interface                              : Native Win32 interface for Win NT & 2000
Gap handling                                : Appended to previous track
Used output format              : User Defined Encoder
Selected bitrate                : 128 kBit/s
Quality                         : High
Add ID3 tag                     : No
Command line compressor         : E:\Програмы\Музыка - Видео\Exact Audio Copy 1.0 beta 1\Flac\flac.exe
Additional command line options : -8 -V -T "ARTIST=%a" -T "TITLE=%t" -T "ALBUM=%g" -T "DATE=%y" -T "TRACKNUMBER=%n" -T "GENRE=%m" -T "COMMENT=EAC FLAC -8" %s
TOC of the extracted CD
     Track |   Start  |  Length  | Start sector | End sector
    ---------------------------------------------------------
        1  |  0:00.00 |  5:48.47 |         0    |    26146
        2  |  5:48.47 |  6:46.03 |     26147    |    56599
        3  | 12:34.50 |  5:54.25 |     56600    |    83174
        4  | 18:29.00 |  6:25.37 |     83175    |   112086
        5  | 24:54.37 |  7:14.65 |    112087    |   144701
        6  | 32:09.27 |  4:46.40 |    144702    |   166191
        7  | 36:55.67 |  5:02.43 |    166192    |   188884
        8  | 41:58.35 |  4:49.15 |    188885    |   210574
        9  | 46:47.50 |  5:22.47 |    210575    |   234771
       10  | 52:10.22 |  7:07.25 |    234772    |   266821
       11  | 59:17.47 |  4:27.25 |    266822    |   286871
       12  | 63:44.72 |  7:29.68 |    286872    |   320614
Track  1
     Filename E:\01. Nightingale.wav
     Pre-gap length  0:00:02.00
     Peak level 86.2 %
     Extraction speed 2.4 X
     Track quality 100.0 %
     Test CRC 2B379F8A
     Copy CRC 2B379F8A
     Accurately ripped (confidence 2)  [7BA777E2]
     Copy OK
Track  2
     Filename E:\02. Goodnight Gretchen.wav
     Peak level 90.8 %
     Extraction speed 2.5 X
     Track quality 100.0 %
     Test CRC 599B46C5
     Copy CRC 599B46C5
     Accurately ripped (confidence 2)  [52CF8056]
     Copy OK
Track  3
     Filename E:\03. Feel The Pressure.wav
     Peak level 98.2 %
     Extraction speed 2.1 X
     Track quality 99.9 %
     Test CRC CB85EDDA
     Copy CRC CB85EDDA
     Accurately ripped (confidence 2)  [EBD762CA]
     Copy OK
Track  4
     Filename E:\04. Waiting For The Tide.wav
     Peak level 93.6 %
     Extraction speed 2.4 X
     Track quality 99.9 %
     Test CRC 22D0274D
     Copy CRC 22D0274D
     Accurately ripped (confidence 2)  [1E886AA5]
     Copy OK
Track  5
     Filename E:\05. Fortress of Solitude.wav
     Pre-gap length  0:00:01.02
     Peak level 94.1 %
     Extraction speed 3.3 X
     Track quality 100.0 %
     Test CRC 55937DA3
     Copy CRC 55937DA3
     Accurately ripped (confidence 2)  [37616E21]
     Copy OK
Track  6
     Filename E:\06. Upside Down & Inside Out.wav
     Peak level 98.9 %
     Extraction speed 2.5 X
     Track quality 99.9 %
     Test CRC 85191B41
     Copy CRC 85191B41
     Accurately ripped (confidence 2)  [B306DEC2]
     Copy OK
Track  7
     Filename E:\07. Borderline.wav
     Pre-gap length  0:00:00.80
     Peak level 91.7 %
     Extraction speed 3.5 X
     Track quality 100.0 %
     Test CRC D0C50762
     Copy CRC D0C50762
     Accurately ripped (confidence 2)  [ADC19793]
     Copy OK
Track  8
     Filename E:\08. Better Than You.wav
     Peak level 78.4 %
     Extraction speed 2.7 X
     Track quality 99.9 %
     Test CRC 39DE582C
     Copy CRC 39DE582C
     Accurately ripped (confidence 2)  [1333F27A]
     Copy OK
Track  9
     Filename E:\09. Hellfire.wav
     Pre-gap length  0:00:00.53
     Peak level 83.1 %
     Extraction speed 3.8 X
     Track quality 100.0 %
     Test CRC 96F1A94A
     Copy CRC 96F1A94A
     Accurately ripped (confidence 2)  [88B07447]
     Copy OK
Track 10
     Filename E:\10. One-Armed Man.wav
     Peak level 100.0 %
     Extraction speed 3.3 X
     Track quality 99.9 %
     Test CRC 27C3F0CC
     Copy CRC 27C3F0CC
     Accurately ripped (confidence 2)  [D119A04D]
     Copy OK
Track 11
     Filename E:\11. Home Again.wav
     Peak level 90.1 %
     Extraction speed 4.0 X
     Track quality 100.0 %
     Test CRC 8B57A069
     Copy CRC 8B57A069
     Accurately ripped (confidence 2)  [DE617255]
     Copy OK
Track 12
     Filename E:\12. Epilog.wav
     Pre-gap length  0:00:03.29
     Peak level 100.0 %
     Extraction speed 4.4 X
     Track quality 100.0 %
     Test CRC 4F6B0272
     Copy CRC 4F6B0272
     Accurately ripped (confidence 2)  [5A11E874]
     Copy OK
All tracks accurately ripped
No errors occurred
End of status report
==== Log checksum E9B2952AF855A0A8B411941E9BFD565BD092B792DB4CCB13B35EE0A2A8596F12 ====
Код:
REM GENRE Rock
REM DATE 1992
REM DISCID 9C10B20C
REM COMMENT "ExactAudioCopy v1.0b1"
PERFORMER "God Street Wine"
TITLE "Bag"
FILE "01. Nightingale.wav" WAVE
  TRACK 01 AUDIO
    TITLE "Nightingale"
    PERFORMER "God Street Wine"
    INDEX 01 00:00:00
FILE "02. Goodnight Gretchen.wav" WAVE
  TRACK 02 AUDIO
    TITLE "Goodnight Gretchen"
    PERFORMER "God Street Wine"
    INDEX 01 00:00:00
FILE "03. Feel The Pressure.wav" WAVE
  TRACK 03 AUDIO
    TITLE "Feel The Pressure"
    PERFORMER "God Street Wine"
    INDEX 01 00:00:00
FILE "04. Waiting For The Tide.wav" WAVE
  TRACK 04 AUDIO
    TITLE "Waiting For The Tide"
    PERFORMER "God Street Wine"
    INDEX 01 00:00:00
  TRACK 05 AUDIO
    TITLE "Fortress of Solitude"
    PERFORMER "God Street Wine"
    INDEX 00 06:24:35
FILE "05. Fortress of Solitude.wav" WAVE
    INDEX 01 00:00:00
FILE "06. Upside Down & Inside Out.wav" WAVE
  TRACK 06 AUDIO
    TITLE "Upside Down & Inside Out"
    PERFORMER "God Street Wine"
    INDEX 01 00:00:00
  TRACK 07 AUDIO
    TITLE "Borderline"
    PERFORMER "God Street Wine"
    INDEX 00 04:45:55
FILE "07. Borderline.wav" WAVE
    INDEX 01 00:00:00
FILE "08. Better Than You.wav" WAVE
  TRACK 08 AUDIO
    TITLE "Better Than You"
    PERFORMER "God Street Wine"
    INDEX 01 00:00:00
  TRACK 09 AUDIO
    TITLE "Hellfire"
    PERFORMER "God Street Wine"
    INDEX 00 04:48:50
FILE "09. Hellfire.wav" WAVE
    INDEX 01 00:00:00
FILE "10. One-Armed Man.wav" WAVE
  TRACK 10 AUDIO
    TITLE "One-Armed Man"
    PERFORMER "God Street Wine"
    INDEX 01 00:00:00
FILE "11. Home Again.wav" WAVE
  TRACK 11 AUDIO
    TITLE "Home Again"
    PERFORMER "God Street Wine"
    INDEX 01 00:00:00
  TRACK 12 AUDIO
    TITLE "Epilog"
    PERFORMER "God Street Wine"
    INDEX 00 04:24:03
FILE "12. Epilog.wav" WAVE
    INDEX 01 00:00:00
#7771. "Princess Henrietta" 6:50
2. "Mile by Mile" (Faber, Aaron Maxwell) 3:40
3. "Nightingale" 4:41
4. "Thirsty" 4:03
5. "Stone House" 3:55
6. "Molly" 4:45
7. "The Ballroom" 5:24
8. "Run to You" 4:21
9. "Crazy Head" 4:01
10. "Hammer and a Spike" 4:43
11. "Wendy" 4:47
12. "Imogene" 5:33
13. "Tina's Town" 4:38
14. "Into the Sea" 6:24
Код:
Exact Audio Copy V1.0 beta 1 from 15. November 2010
EAC extraction logfile from 5. April 2011, 12:53
God Street Wine / $1.99 Romances
Used drive  : ASUS    DRW-22B2L   Adapter: 3  ID: 0
Read mode               : Secure
Utilize accurate stream : Yes
Defeat audio cache      : Yes
Make use of C2 pointers : No
Read offset correction                      : 6
Overread into Lead-In and Lead-Out          : No
Fill up missing offset samples with silence : Yes
Delete leading and trailing silent blocks   : No
Null samples used in CRC calculations       : Yes
Used interface                              : Native Win32 interface for Win NT & 2000
Gap handling                                : Appended to previous track
Used output format              : User Defined Encoder
Selected bitrate                : 128 kBit/s
Quality                         : High
Add ID3 tag                     : No
Command line compressor         : E:\Програмы\Музыка - Видео\Exact Audio Copy 1.0 beta 1\Flac\flac.exe
Additional command line options : -8 -V -T "ARTIST=%a" -T "TITLE=%t" -T "ALBUM=%g" -T "DATE=%y" -T "TRACKNUMBER=%n" -T "GENRE=%m" -T "COMMENT=EAC FLAC -8" %s
TOC of the extracted CD
     Track |   Start  |  Length  | Start sector | End sector
    ---------------------------------------------------------
        1  |  0:00.00 |  6:50.55 |         0    |    30804
        2  |  6:50.55 |  3:40.33 |     30805    |    47337
        3  | 10:31.13 |  4:41.60 |     47338    |    68472
        4  | 15:12.73 |  4:03.15 |     68473    |    86712
        5  | 19:16.13 |  3:55.32 |     86713    |   104369
        6  | 23:11.45 |  4:45.10 |    104370    |   125754
        7  | 27:56.55 |  5:24.68 |    125755    |   150122
        8  | 33:21.48 |  4:21.02 |    150123    |   169699
        9  | 37:42.50 |  4:01.48 |    169700    |   187822
       10  | 41:44.23 |  4:43.47 |    187823    |   209094
       11  | 46:27.70 |  4:47.18 |    209095    |   230637
       12  | 51:15.13 |  5:33.10 |    230638    |   255622
       13  | 56:48.23 |  4:38.02 |    255623    |   276474
       14  | 61:26.25 |  6:24.70 |    276475    |   305344
Track  1
     Filename E:\01. Princess Henrietta.wav
     Pre-gap length  0:00:02.00
     Peak level 100.0 %
     Extraction speed 2.3 X
     Track quality 100.0 %
     Test CRC AD648B4F
     Copy CRC AD648B4F
     Accurately ripped (confidence 3)  [5351F395]
     Copy OK
Track  2
     Filename E:\02. Mile by Mile.wav
     Peak level 100.0 %
     Extraction speed 2.4 X
     Track quality 100.0 %
     Test CRC 5C41C4C1
     Copy CRC 5C41C4C1
     Accurately ripped (confidence 3)  [455F4ED0]
     Copy OK
Track  3
     Filename E:\03. Nightingale.wav
     Peak level 100.0 %
     Extraction speed 2.6 X
     Track quality 100.0 %
     Test CRC F0CDD979
     Copy CRC F0CDD979
     Accurately ripped (confidence 3)  [38E722E6]
     Copy OK
Track  4
     Filename E:\04. Thirsty.wav
     Peak level 100.0 %
     Extraction speed 2.8 X
     Track quality 100.0 %
     Test CRC 4733B997
     Copy CRC 4733B997
     Accurately ripped (confidence 3)  [0F4362B2]
     Copy OK
Track  5
     Filename E:\05. Stone House.wav
     Pre-gap length  0:00:01.24
     Peak level 100.0 %
     Extraction speed 2.1 X
     Track quality 99.9 %
     Test CRC C1244BE9
     Copy CRC C1244BE9
     Accurately ripped (confidence 3)  [099B140C]
     Copy OK
Track  6
     Filename E:\06. Molly.wav
     Peak level 100.0 %
     Extraction speed 3.1 X
     Track quality 100.0 %
     Test CRC 581B6C99
     Copy CRC 581B6C99
     Accurately ripped (confidence 3)  [8994F5C4]
     Copy OK
Track  7
     Filename E:\07. The Ballroom.wav
     Pre-gap length  0:00:00.26
     Peak level 100.0 %
     Extraction speed 3.4 X
     Track quality 100.0 %
     Test CRC 05211788
     Copy CRC 05211788
     Accurately ripped (confidence 3)  [FB5828B4]
     Copy OK
Track  8
     Filename E:\08. Run to You.wav
     Pre-gap length  0:00:01.13
     Peak level 100.0 %
     Extraction speed 3.4 X
     Track quality 100.0 %
     Test CRC FBB87AC4
     Copy CRC FBB87AC4
     Accurately ripped (confidence 3)  [F99FE979]
     Copy OK
Track  9
     Filename E:\09. Crazy Head.wav
     Pre-gap length  0:00:00.13
     Peak level 100.0 %
     Extraction speed 3.5 X
     Track quality 100.0 %
     Test CRC A5857685
     Copy CRC A5857685
     Accurately ripped (confidence 3)  [4CA981F9]
     Copy OK
Track 10
     Filename E:\10. Hammer and a Spike.wav
     Peak level 100.0 %
     Extraction speed 3.7 X
     Track quality 100.0 %
     Test CRC 576BDAD7
     Copy CRC 576BDAD7
     Accurately ripped (confidence 3)  [92C6BDFA]
     Copy OK
Track 11
     Filename E:\11. Wendy.wav
     Pre-gap length  0:00:00.20
     Peak level 100.0 %
     Extraction speed 2.9 X
     Track quality 99.9 %
     Test CRC C536358A
     Copy CRC C536358A
     Accurately ripped (confidence 3)  [5D598D3D]
     Copy OK
Track 12
     Filename E:\12. Imogene.wav
     Pre-gap length  0:00:00.93
     Peak level 100.0 %
     Extraction speed 4.1 X
     Track quality 100.0 %
     Test CRC F3D47707
     Copy CRC F3D47707
     Accurately ripped (confidence 3)  [DD09E3CF]
     Copy OK
Track 13
     Filename E:\13. Tina's Town.wav
     Peak level 100.0 %
     Extraction speed 4.1 X
     Track quality 100.0 %
     Test CRC C49004CC
     Copy CRC C49004CC
     Accurately ripped (confidence 3)  [F1202CAD]
     Copy OK
Track 14
     Filename E:\14. Into the Sea.wav
     Pre-gap length  0:00:01.82
     Peak level 100.0 %
     Extraction speed 4.4 X
     Track quality 100.0 %
     Test CRC 5AA957B8
     Copy CRC 5AA957B8
     Accurately ripped (confidence 2)  [84B9337C]
     Copy OK
All tracks accurately ripped
No errors occurred
End of status report
==== Log checksum 1E44B99841926F31A0E03690AAFDAE1BA4F1BD5EF971ACC227714DA3AA653DFE ====
Код:
REM GENRE "Alt. Rock, Jam Rock"
REM DATE 1994
REM DISCID C40FE70E
REM COMMENT "ExactAudioCopy v1.0b1"
PERFORMER "God Street Wine"
TITLE "$1.99 Romances"
FILE "01. Princess Henrietta.wav" WAVE
  TRACK 01 AUDIO
    TITLE "Princess Henrietta"
    PERFORMER "God Street Wine"
    INDEX 01 00:00:00
FILE "02. Mile by Mile.wav" WAVE
  TRACK 02 AUDIO
    TITLE "Mile by Mile"
    PERFORMER "God Street Wine"
    INDEX 01 00:00:00
FILE "03. Nightingale.wav" WAVE
  TRACK 03 AUDIO
    TITLE "Nightingale"
    PERFORMER "God Street Wine"
    INDEX 01 00:00:00
FILE "04. Thirsty.wav" WAVE
  TRACK 04 AUDIO
    TITLE "Thirsty"
    PERFORMER "God Street Wine"
    INDEX 01 00:00:00
  TRACK 05 AUDIO
    TITLE "Stone House"
    PERFORMER "God Street Wine"
    INDEX 00 04:01:72
FILE "05. Stone House.wav" WAVE
    INDEX 01 00:00:00
FILE "06. Molly.wav" WAVE
  TRACK 06 AUDIO
    TITLE "Molly"
    PERFORMER "God Street Wine"
    INDEX 01 00:00:00
  TRACK 07 AUDIO
    TITLE "The Ballroom"
    PERFORMER "God Street Wine"
    INDEX 00 04:44:65
FILE "07. The Ballroom.wav" WAVE
    INDEX 01 00:00:00
  TRACK 08 AUDIO
    TITLE "Run to You"
    PERFORMER "God Street Wine"
    INDEX 00 05:23:58
FILE "08. Run to You.wav" WAVE
    INDEX 01 00:00:00
  TRACK 09 AUDIO
    TITLE "Crazy Head"
    PERFORMER "God Street Wine"
    INDEX 00 04:20:67
FILE "09. Crazy Head.wav" WAVE
    INDEX 01 00:00:00
FILE "10. Hammer and a Spike.wav" WAVE
  TRACK 10 AUDIO
    TITLE "Hammer and a Spike"
    PERFORMER "God Street Wine"
    INDEX 01 00:00:00
  TRACK 11 AUDIO
    TITLE "Wendy"
    PERFORMER "God Street Wine"
    INDEX 00 04:43:32
FILE "11. Wendy.wav" WAVE
    INDEX 01 00:00:00
  TRACK 12 AUDIO
    TITLE "Imogene"
    PERFORMER "God Street Wine"
    INDEX 00 04:46:23
FILE "12. Imogene.wav" WAVE
    INDEX 01 00:00:00
FILE "13. Tina's Town.wav" WAVE
  TRACK 13 AUDIO
    TITLE "Tina's Town"
    PERFORMER "God Street Wine"
    INDEX 01 00:00:00
  TRACK 14 AUDIO
    TITLE "Into the Sea"
    PERFORMER "God Street Wine"
    INDEX 00 04:36:15
FILE "14. Into the Sea.wav" WAVE
    INDEX 01 00:00:00
#77701. Get on the Train
02. Red & Milky White
03. RU4 Real
04. Untitled Take Two
05. Which Way Will She Go
06. Chop!
07. Don't Tell God
08. Girl on Fire
09. Maybe
10. Made of Blood
11. When the White Sun Turns to Red
Код:
Exact Audio Copy V1.0 beta 1 from 15. November 2010
EAC extraction logfile from 5. April 2011, 12:05
God Street Wine / Red
Used drive  : ASUS    DRW-22B2L   Adapter: 3  ID: 0
Read mode               : Secure
Utilize accurate stream : Yes
Defeat audio cache      : Yes
Make use of C2 pointers : No
Read offset correction                      : 6
Overread into Lead-In and Lead-Out          : No
Fill up missing offset samples with silence : Yes
Delete leading and trailing silent blocks   : No
Null samples used in CRC calculations       : Yes
Used interface                              : Native Win32 interface for Win NT & 2000
Gap handling                                : Appended to previous track
Used output format              : User Defined Encoder
Selected bitrate                : 128 kBit/s
Quality                         : High
Add ID3 tag                     : No
Command line compressor         : E:\Програмы\Музыка - Видео\Exact Audio Copy 1.0 beta 1\Flac\flac.exe
Additional command line options : -8 -V -T "ARTIST=%a" -T "TITLE=%t" -T "ALBUM=%g" -T "DATE=%y" -T "TRACKNUMBER=%n" -T "GENRE=%m" -T "COMMENT=EAC FLAC -8" %s
TOC of the extracted CD
     Track |   Start  |  Length  | Start sector | End sector
    ---------------------------------------------------------
        1  |  0:00.00 |  4:43.45 |         0    |    21269
        2  |  4:43.45 |  3:37.47 |     21270    |    37591
        3  |  8:21.17 |  7:14.43 |     37592    |    70184
        4  | 15:35.60 |  3:12.62 |     70185    |    84646
        5  | 18:48.47 |  5:49.13 |     84647    |   110834
        6  | 24:37.60 |  5:58.22 |    110835    |   137706
        7  | 30:36.07 |  5:29.65 |    137707    |   162446
        8  | 36:05.72 |  6:36.55 |    162447    |   192201
        9  | 42:42.52 |  7:17.53 |    192202    |   225029
       10  | 50:00.30 |  5:10.72 |    225030    |   248351
       11  | 55:11.27 |  4:28.03 |    248352    |   268454
Track  1
     Filename E:\01. Get on the Train.wav
     Pre-gap length  0:00:02.00
     Peak level 100.0 %
     Extraction speed 3.1 X
     Track quality 99.9 %
     Test CRC 19BCC48E
     Copy CRC 19BCC48E
     Accurately ripped (confidence 7)  [4CC4795D]
     Copy OK
Track  2
     Filename E:\02. Red & Milky White.wav
     Peak level 100.0 %
     Extraction speed 3.9 X
     Track quality 100.0 %
     Test CRC 34D2BE4D
     Copy CRC 34D2BE4D
     Accurately ripped (confidence 7)  [5DB0E19E]
     Copy OK
Track  3
     Filename E:\03. RU4 Real.wav
     Peak level 100.0 %
     Extraction speed 4.7 X
     Track quality 100.0 %
     Test CRC 060B8D39
     Copy CRC 060B8D39
     Accurately ripped (confidence 7)  [0A8EC007]
     Copy OK
Track  4
     Filename E:\04. Untitled Take Two.wav
     Peak level 99.9 %
     Extraction speed 4.7 X
     Track quality 100.0 %
     Test CRC D7534283
     Copy CRC D7534283
     Accurately ripped (confidence 7)  [ED1BC2D9]
     Copy OK
Track  5
     Filename E:\05. Which Way Will She Go.wav
     Peak level 100.0 %
     Extraction speed 5.4 X
     Track quality 100.0 %
     Test CRC 90F1E0BE
     Copy CRC 90F1E0BE
     Accurately ripped (confidence 7)  [F51DF3C8]
     Copy OK
Track  6
     Filename E:\06. Chop!.wav
     Peak level 100.0 %
     Extraction speed 4.9 X
     Track quality 99.9 %
     Test CRC 43133E8B
     Copy CRC 43133E8B
     Accurately ripped (confidence 7)  [CA7C8039]
     Copy OK
Track  7
     Filename E:\07. Don't Tell God.wav
     Peak level 100.0 %
     Extraction speed 6.1 X
     Track quality 100.0 %
     Test CRC 039C4198
     Copy CRC 039C4198
     Accurately ripped (confidence 7)  [58A85622]
     Copy OK
Track  8
     Filename E:\08. Girl on Fire.wav
     Peak level 100.0 %
     Extraction speed 6.6 X
     Track quality 100.0 %
     Test CRC 519CA235
     Copy CRC 519CA235
     Accurately ripped (confidence 7)  [72177378]
     Copy OK
Track  9
     Filename E:\09. Maybe.wav
     Peak level 100.0 %
     Extraction speed 7.0 X
     Track quality 100.0 %
     Test CRC AEEC7D52
     Copy CRC AEEC7D52
     Accurately ripped (confidence 7)  [8AD67FDD]
     Copy OK
Track 10
     Filename E:\10. Made of Blood.wav
     Peak level 100.0 %
     Extraction speed 7.1 X
     Track quality 100.0 %
     Test CRC B1DFFD17
     Copy CRC B1DFFD17
     Accurately ripped (confidence 7)  [2EA7C6AA]
     Copy OK
Track 11
     Filename E:\11. When the White Sun Turns to Red.wav
     Peak level 100.0 %
     Extraction speed 7.1 X
     Track quality 100.0 %
     Test CRC 8892398E
     Copy CRC 8892398E
     Accurately ripped (confidence 5)  [B8611E2A]
     Copy OK
All tracks accurately ripped
No errors occurred
End of status report
==== Log checksum BD6E93D6F85B946086AAF9E7CE74C50AD4709E79B06B99BB13B0AD3DB9EBA6AD ====
Код:
REM GENRE Rock
REM DATE 1996
REM DISCID 8A0DFB0B
REM COMMENT "ExactAudioCopy v1.0b1"
PERFORMER "God Street Wine"
TITLE "Red"
FILE "01. Get on the Train.wav" WAVE
  TRACK 01 AUDIO
    TITLE "Get on the Train"
    PERFORMER "God Street Wine"
    INDEX 01 00:00:00
FILE "02. Red & Milky White.wav" WAVE
  TRACK 02 AUDIO
    TITLE "Red & Milky White"
    PERFORMER "God Street Wine"
    INDEX 01 00:00:00
FILE "03. RU4 Real.wav" WAVE
  TRACK 03 AUDIO
    TITLE "RU4 Real?"
    PERFORMER "God Street Wine"
    INDEX 01 00:00:00
FILE "04. Untitled Take Two.wav" WAVE
  TRACK 04 AUDIO
    TITLE "Untitled Take Two"
    PERFORMER "God Street Wine"
    INDEX 01 00:00:00
FILE "05. Which Way Will She Go.wav" WAVE
  TRACK 05 AUDIO
    TITLE "Which Way Will She Go?"
    PERFORMER "God Street Wine"
    INDEX 01 00:00:00
FILE "06. Chop!.wav" WAVE
  TRACK 06 AUDIO
    TITLE "Chop!"
    PERFORMER "God Street Wine"
    INDEX 01 00:00:00
FILE "07. Don't Tell God.wav" WAVE
  TRACK 07 AUDIO
    TITLE "Don't Tell God"
    PERFORMER "God Street Wine"
    INDEX 01 00:00:00
FILE "08. Girl on Fire.wav" WAVE
  TRACK 08 AUDIO
    TITLE "Girl on Fire"
    PERFORMER "God Street Wine"
    INDEX 01 00:00:00
FILE "09. Maybe.wav" WAVE
  TRACK 09 AUDIO
    TITLE "Maybe"
    PERFORMER "God Street Wine"
    INDEX 01 00:00:00
FILE "10. Made of Blood.wav" WAVE
  TRACK 10 AUDIO
    TITLE "Made of Blood"
    PERFORMER "God Street Wine"
    INDEX 01 00:00:00
FILE "11. When the White Sun Turns to Red.wav" WAVE
  TRACK 11 AUDIO
    TITLE "When the White Sun Turns to Red"
    PERFORMER "God Street Wine"
    INDEX 01 00:00:00
Официальный сайт
Википедия
AllMusic
God Street Wine, a New York-based jam band in the tradition of the Spin Doctors and Blues Traveler, blend funk, reggae, folk-rock, post-punk, pop/rock, and blues-rock into a cohesive whole that is unique and original. God Street Wine formed in New York City in the late '80s and lived there until they moved to Westchester County, NY, in 1991. Comprised of Lo Faber on guitar and lead vocals, Aaron Maxwell on guitar and lead vocals, Dan Pifer on bass guitar and vocals, Jon Bevo on piano, organ, and vocals, and Tomo (or John Thomas Osander) on drums, God Street Wine played their first show on December 13, 1988, at the Nightingale Bar in New York City.
They became legendary for putting on shows in excess of three hours, and with their two guitarists and reliance on improvisation, began to draw comparisons to another great twin-guitar band, the Allman Brothers. Even though God Street Wine's sound was considerably less bluesy, the band wasn't afraid to take chances in front of a live audience, not unlike the Spin Doctors or Blues Traveler. They maintained a large mailing list, in excess of 15,000 names, and continued developing a dedicated fan base often referred to as "Winos." It was this grassroots following that attracted the attention of record executives, not unlike the way Phish took off up in that band's home state of Vermont.
God Street Wine's first album, Bag, a self-produced affair, was released in 1992. They followed it up with a live compilation, Who's Driving?, in October 1993 on the Ripe and Ready label. After attracting the attention of Geffen Records executives and a management company, McGhee Entertainment, they signed with Geffen in January 1994 and released .99 Romances in September on a label co-venture between Geffen and McGhee. Since no one at Geffen knew the band, there was little promotion or advertising of the record. They signed with Mercury Records in 1995 after an executive there caught them at the Beacon Theater in New York. The partnership produced Red the following year and the eponymous God Street Wine in 1997. The group continued to tour until 1999 and disbanded the following year. They released Good to the Last Drop, a collection of highlights from their farewell tour, in July of 2000.
Правила, инструкции, FAQ!!!
Торрент  Добавлен [26 мар 2019, 20:28] Скачать торрент Магнет ссылка
Скачать торрент
[ Размер 17.72 КБ / Просмотров 3 ]

Статус
Проверен 
 
Размер  1.31 ГБ
Приватный: Нет (DHT включён)
.torrent скачан  0
 


     Отправить личное сообщение
   
Страница 1 из 1
Показать сообщения за:  Поле сортировки  
Начать новую тему Ответить на тему


Сейчас этот форум просматривают: нет зарегистрированных пользователей и гости: 0


Вы не можете начинать темы
Вы не можете отвечать на сообщения
Вы не можете редактировать свои сообщения
Вы не можете удалять свои сообщения
Вы не можете добавлять вложения

Перейти:  
cron