Начать новую тему Ответить на тему
Статистика раздачи
Размер: 292.52 МБ | Добавлен: 26 мар 2019, 21:04 | Скачали: 0
Сидеров: 0  [0 байт/сек]    Личеров: 0  [0 байт/сек]
Пред. тема | След. тема 

Автор
Сообщение

СообщениеДобавлено: 26 мар 2019, 21:04 

Ответить с цитатой 

Ginger / Far Out
Жанр: Pop-Rock & Soft Rock, Alternative, Indie, Adult
Страна-производитель диска: Канада, Британская Колумбия, Келоуна
Год издания диска: 1994
Издатель (лейбл): Nettwerk
Номер по каталогу: W2-30096
Страна: Канада
Аудио кодек: FLAC (*.flac)
Тип рипа: tracks+.cue
Битрейт аудио: lossless
Продолжительность: 41:23
Источник (релизер): CD
Наличие сканов в содержимом раздачи: да
Треклист:
1. Far Out
2. Solid Ground
3. Feel Like Falling Down
4. Saying Sorry Again
5. Keep Looking Back
6. On The Road Yet Again
7. Ocean Drain
8. The Earth Revolves Around You
9. Mr. Attitude
10. Darkside Of My Mind
11. The One Who Fell From Grace On The News
Код:
Exact Audio Copy V0.99 prebeta 5 from 4. May 2009
EAC extraction logfile from 22. May 2010, 22:45
Ginger / Far Out
Used drive  : ASUS    DRW-22B2L   Adapter: 1  ID: 0
Read mode               : Secure
Utilize accurate stream : Yes
Defeat audio cache      : Yes
Make use of C2 pointers : No
Read offset correction                      : 6
Overread into Lead-In and Lead-Out          : No
Fill up missing offset samples with silence : Yes
Delete leading and trailing silent blocks   : No
Null samples used in CRC calculations       : Yes
Used interface                              : Native Win32 interface for Win NT & 2000
Gap handling                                : Appended to previous track
Used output format              : User Defined Encoder
Selected bitrate                : 128 kBit/s
Quality                         : High
Add ID3 tag                     : No
Command line compressor         : E:\Програмы\Exact Audio Copy\Flac\flac.exe
Additional command line options : -8 -V -T "ARTIST=%a" -T "TITLE=%t" -T "ALBUM=%g" -T "DATE=%y" -T "TRACKNUMBER=%n" -T "GENRE=%m" -T "COMMENT=EAC FLAC -8" %s
TOC of the extracted CD
     Track |   Start  |  Length  | Start sector | End sector
    ---------------------------------------------------------
        1  |  0:00.00 |  3:40.35 |         0    |    16534
        2  |  3:40.35 |  4:07.40 |     16535    |    35099
        3  |  7:48.00 |  4:05.70 |     35100    |    53544
        4  | 11:53.70 |  2:32.25 |     53545    |    64969
        5  | 14:26.20 |  4:32.65 |     64970    |    85434
        6  | 18:59.10 |  2:10.60 |     85435    |    95244
        7  | 21:09.70 |  5:21.37 |     95245    |   119356
        8  | 26:31.32 |  3:49.53 |    119357    |   136584
        9  | 30:21.10 |  3:02.10 |    136585    |   150244
       10  | 33:23.20 |  3:20.67 |    150245    |   165311
       11  | 36:44.12 |  4:39.40 |    165312    |   186276
Track  1
     Filename E:\01. Far Out.wav
     Pre-gap length  0:00:02.00
     Peak level 97.7 %
     Track quality 99.9 %
     Test CRC CE72FEFA
     Copy CRC CE72FEFA
     Cannot be verified as accurate (confidence 2)  [2D4C6088], AccurateRip returned [1F4941A8]
     Copy OK
Track  2
     Filename E:\02. Solid Ground.wav
     Pre-gap length  0:00:01.28
     Peak level 97.7 %
     Track quality 100.0 %
     Test CRC D862A6C9
     Copy CRC D862A6C9
     Cannot be verified as accurate (confidence 2)  [E18BD858], AccurateRip returned [394F50CA]
     Copy OK
Track  3
     Filename E:\03. Feel Like Falling Down.wav
     Peak level 97.7 %
     Track quality 100.0 %
     Test CRC 6B521ADE
     Copy CRC 6B521ADE
     Cannot be verified as accurate (confidence 2)  [0E85E4BB], AccurateRip returned [35A1A6E4]
     Copy OK
Track  4
     Filename E:\04. Saying Sorry Again.wav
     Peak level 97.7 %
     Track quality 100.0 %
     Test CRC 6B0F1C79
     Copy CRC 6B0F1C79
     Cannot be verified as accurate (confidence 2)  [DB81F59D], AccurateRip returned [B52D9F8F]
     Copy OK
Track  5
     Filename E:\05. Keep Looking Back.wav
     Peak level 97.7 %
     Track quality 100.0 %
     Test CRC B665DA76
     Copy CRC B665DA76
     Cannot be verified as accurate (confidence 2)  [A61C349C], AccurateRip returned [C08BE78D]
     Copy OK
Track  6
     Filename E:\06. On The Road Yet Again.wav
     Peak level 97.7 %
     Track quality 100.0 %
     Test CRC F1E1B916
     Copy CRC F1E1B916
     Cannot be verified as accurate (confidence 2)  [4CF068F2], AccurateRip returned [3544925B]
     Copy OK
Track  7
     Filename E:\07. Ocean Drain.wav
     Pre-gap length  0:00:00.35
     Peak level 97.7 %
     Track quality 100.0 %
     Test CRC 612CFA46
     Copy CRC 612CFA46
     Cannot be verified as accurate (confidence 2)  [63F0F5AF], AccurateRip returned [FD6E1AA4]
     Copy OK
Track  8
     Filename E:\08. The Earth Revolves Around You.wav
     Pre-gap length  0:00:00.25
     Peak level 97.7 %
     Track quality 100.0 %
     Test CRC 8DFF74C9
     Copy CRC 8DFF74C9
     Cannot be verified as accurate (confidence 2)  [29548EFA], AccurateRip returned [A41E5ED6]
     Copy OK
Track  9
     Filename E:\09. Mr. Attitude.wav
     Peak level 97.7 %
     Track quality 100.0 %
     Test CRC 4BD5024C
     Copy CRC 4BD5024C
     Cannot be verified as accurate (confidence 2)  [15BC3B8F], AccurateRip returned [95E4850B]
     Copy OK
Track 10
     Filename E:\10. Darkside Of My Mind.wav
     Pre-gap length  0:00:00.48
     Peak level 97.7 %
     Track quality 99.9 %
     Test CRC B60A829F
     Copy CRC B60A829F
     Cannot be verified as accurate (confidence 2)  [81750D0C], AccurateRip returned [87762F96]
     Copy OK
Track 11
     Filename E:\11. The One Who Fell From Grace On The News.wav
     Pre-gap length  0:00:00.50
     Peak level 97.7 %
     Track quality 100.0 %
     Test CRC 44B096AF
     Copy CRC 44B096AF
     Cannot be verified as accurate (confidence 2)  [7350A628], AccurateRip returned [CAF8F2EA]
     Copy OK
No tracks could be verified as accurate
You may have a different pressing from the one(s) in the database
No errors occurred
End of status report
Код:
REM GENRE Rock
REM DATE 1994
REM DISCID 7909B30B
REM COMMENT "ExactAudioCopy v0.99pb5"
PERFORMER "Ginger"
TITLE "Far Out"
FILE "01. Far Out.wav" WAVE
  TRACK 01 AUDIO
    TITLE "Far Out"
    PERFORMER "Ginger"
    INDEX 01 00:00:00
  TRACK 02 AUDIO
    TITLE "Solid Ground"
    PERFORMER "Ginger"
    INDEX 00 03:39:07
FILE "02. Solid Ground.wav" WAVE
    INDEX 01 00:00:00
FILE "03. Feel Like Falling Down.wav" WAVE
  TRACK 03 AUDIO
    TITLE "Feel Like Falling Down"
    PERFORMER "Ginger"
    INDEX 01 00:00:00
FILE "04. Saying Sorry Again.wav" WAVE
  TRACK 04 AUDIO
    TITLE "Saying Sorry Again"
    PERFORMER "Ginger"
    INDEX 01 00:00:00
FILE "05. Keep Looking Back.wav" WAVE
  TRACK 05 AUDIO
    TITLE "Keep Looking Back"
    PERFORMER "Ginger"
    INDEX 01 00:00:00
FILE "06. On The Road Yet Again.wav" WAVE
  TRACK 06 AUDIO
    TITLE "On The Road Yet Again"
    PERFORMER "Ginger"
    INDEX 01 00:00:00
  TRACK 07 AUDIO
    TITLE "Ocean Drain"
    PERFORMER "Ginger"
    INDEX 00 02:10:25
FILE "07. Ocean Drain.wav" WAVE
    INDEX 01 00:00:00
  TRACK 08 AUDIO
    TITLE "The Earth Revolves Around You"
    PERFORMER "Ginger"
    INDEX 00 05:21:12
FILE "08. The Earth Revolves Around You.wav" WAVE
    INDEX 01 00:00:00
FILE "09. Mr. Attitude.wav" WAVE
  TRACK 09 AUDIO
    TITLE "Mr. Attitude"
    PERFORMER "Ginger"
    INDEX 01 00:00:00
  TRACK 10 AUDIO
    TITLE "Darkside Of My Mind"
    PERFORMER "Ginger"
    INDEX 00 03:01:37
FILE "10. Darkside Of My Mind.wav" WAVE
    INDEX 01 00:00:00
  TRACK 11 AUDIO
    TITLE "The One Who Fell From Grace On The News"
    PERFORMER "Ginger"
    INDEX 00 03:20:17
FILE "11. The One Who Fell From Grace On The News.wav" WAVE
    INDEX 01 00:00:00
Википедия
AllMusic
Ginger was a Canadian rock band in the 1990s. The band consisted of Tom Hooper on bass, Chris Hooper on drums and Vincent Jones on keyboards, following the departure of Kevin Kane from their earlier band The Grapes of Wrath. Guitar positions were covered by both Lanny Hussey and Sean Ashby.
With the Grapes of Wrath name and song catalogue tied up in legal wrangling between Kane and the remainder of the band, Jones and the Hooper brothers adopted the name Ginger, and released a self-titled EP under that name in 1993. In an ironic reversal of fortune, their tour to support that recording was as Sarah McLachlan's opening act on her breakthrough Fumbling Towards Ecstasy tour; McLachlan had been an opening act for the Grapes just a few years earlier.
In 1994, Ginger released Far Out. Both Far Out and the self-titled EP were noted for their strong similarity to the classic Grapes jangle-pop sound, so in 1996, Ginger made a more conscious effort to develop its own distinctive sound, adding some trip-hop and electronic elements to their album Suddenly I Came to My Senses.
However, the members of Ginger went their separate ways following that recording. Jones, Ashby and Chris Hooper became session musicians (Jones and Ashby appear on McLachlan's live albums Mirrorball and Afterglow Live), and Tom Hooper reunited with Kane for a new Grapes of Wrath album, Field Trip, in 2000. (Jones and Chris Hooper did not participate in that reunion.)
Правила, инструкции, FAQ!!!
Торрент  Добавлен [26 мар 2019, 21:04] Скачать торрент Магнет ссылка
Скачать торрент
[ Размер 13.33 КБ / Просмотров 2 ]

Статус
Проверен 
 
Размер  292.52 МБ
Приватный: Нет (DHT включён)
.torrent скачан  0
 


     Отправить личное сообщение
   
Страница 1 из 1
Показать сообщения за:  Поле сортировки  
Начать новую тему Ответить на тему


Сейчас этот форум просматривают: нет зарегистрированных пользователей и гости: 0


Вы не можете начинать темы
Вы не можете отвечать на сообщения
Вы не можете редактировать свои сообщения
Вы не можете удалять свои сообщения
Вы не можете добавлять вложения

Перейти:  
cron