Начать новую тему Ответить на тему
Статистика раздачи
Размер: 195.67 МБ | Добавлен: 26 мар 2019, 19:18 | Скачали: 1
Сидеров: 0  [0 байт/сек]    Личеров: 0  [0 байт/сек]
Пред. тема | След. тема 

Автор
Сообщение

СообщениеДобавлено: 26 мар 2019, 19:18 

Ответить с цитатой 

Guesch Patti. Singles
Жанр: Pop-Rock & Soft Rock, Alternative
Год издания: 1987-1988
Страна: France
Аудиокодек: FLAC (*.flac)
Тип рипа: image+.cue
Битрейт аудио: lossless
Продолжительность: 00:31:28
Источник (релизер): CD
Наличие сканов в содержимом раздачи: да
#777Издатель (лейбл): EMI
Номер по каталогу: 060 20 2215 6
Страна: France
01. Etienne (Club Mix)
02. Etienne (Version Originale)
03. Etienne (Version Longue)
Total Time: 00:16:12
Код:
Exact Audio Copy V0.99 prebeta 3 from 28. July 2007
Отчёт EAC об извлечении, выполненном 5. августа 2013, 19:57
Guesch Patti  / Etienne (Dance Mix) 12'' France
Дисковод: TSSTcorpCDDVDW SE-S084F   Adapter: 2  ID: 0
Режим чтения                 : Достоверность
Использование точного потока : Да
Отключение кэша аудио        : Да
Использование указателей C2  : Нет
Коррекция смещения при чтении                     : 6
Способность читать области Lead-in и Lead-out     : Нет
Заполнение пропущенных сэмплов тишиной            : Да
Удаление блоков с тишиной в начале и конце        : Нет
При вычислениях CRC использовались нулевые сэмплы : Да
Интерфейс                                         : Встроенный Win32-интерфейс для Win NT/2000
Выходной формат          : Пользовательский кодировщик
Выбранный битрейт        : 128 kBit/s
Качество                 : Высокий
Добавление ID3-тэга      : Нет
Утилита сжатия           : C:\Program Files (x86)\Exact Audio Copy\FLAC\FLAC.EXE
Дополнительные параметры : -6 -V -T "ARTIST=%a" -T "TITLE=%t" -T "ALBUM=%g" -T "DATE=%y" -T "TRACKNUMBER=%n" -T "GENRE=%m" -T "COMMENT=%e" %s -o %d
TOC извлечённого CD
     Трек |   Старт  | Длительность | Начальный сектор | Конечный сектор
    ---------------------------------------------------------------------
       1  |  0:00.00 |    6:01.59   |           0      |      27133
       2  |  6:01.59 |    4:11.31   |       27134      |      45989
       3  | 10:13.15 |    5:57.39   |       45990      |      72803
Характеристики диапазона извлечения и сообщения об ошибках
Выбранный диапазон
     Имя файла D:\FLAC\1987 Guesch Patti  - Etienne (Dance Mix) 12'' France flac\Guesch Patti  - Etienne (Dance Mix) 12'' France.wav
     Пиковый уровень 100.0 %
     Качество диапазона 100.0 %
     CRC теста E7E94E6C
     CRC копии E7E94E6C
     Копирование... OK
Ошибок не произошло
AccurateRip: сводка
Трек  1  нет в базе данных
Трек  2  нет в базе данных
Трек  3  нет в базе данных
Ни одного трека нет в базе AccurateRip
Конец отчёта
Код:
REM GENRE Pop
REM DATE 1987
REM DISCID 1A03CA03
REM COMMENT "ExactAudioCopy v0.99pb3"
PERFORMER "Guesch Patti "
TITLE "Etienne (Dance Mix) 12'' France"
FILE "Guesch Patti  - Etienne (Dance Mix) 12'' France.flac" WAVE
  TRACK 01 AUDIO
    TITLE "Etienne (Club Mix)"
    PERFORMER "Guesch Patti "
    INDEX 01 00:00:00
  TRACK 02 AUDIO
    TITLE "Etienne (Version Originale)"
    PERFORMER "Guesch Patti "
    INDEX 01 06:01:59
  TRACK 03 AUDIO
    TITLE "Etienne (Version Longue)"
    PERFORMER "Guesch Patti "
    INDEX 01 10:13:15
#777Издатель (лейбл): Columbia
Номер по каталогу: 12DB 9170
Страна: United Kingdom
01. Let Be Must The Queen (Maxi Version)
02. Etienne (Remix Club)
03. Tout Seul
Total Time: 00:15:16
Код:
Exact Audio Copy V0.99 prebeta 3 from 28. July 2007
Отчёт EAC об извлечении, выполненном 5. августа 2013, 20:10
Guesch Patti   / Let Be Must The Queen 12'' UK
Дисковод: TSSTcorpCDDVDW SE-S084F   Adapter: 2  ID: 0
Режим чтения                 : Достоверность
Использование точного потока : Да
Отключение кэша аудио        : Да
Использование указателей C2  : Нет
Коррекция смещения при чтении                     : 6
Способность читать области Lead-in и Lead-out     : Нет
Заполнение пропущенных сэмплов тишиной            : Да
Удаление блоков с тишиной в начале и конце        : Нет
При вычислениях CRC использовались нулевые сэмплы : Да
Интерфейс                                         : Встроенный Win32-интерфейс для Win NT/2000
Выходной формат          : Пользовательский кодировщик
Выбранный битрейт        : 128 kBit/s
Качество                 : Высокий
Добавление ID3-тэга      : Нет
Утилита сжатия           : C:\Program Files (x86)\Exact Audio Copy\FLAC\FLAC.EXE
Дополнительные параметры : -6 -V -T "ARTIST=%a" -T "TITLE=%t" -T "ALBUM=%g" -T "DATE=%y" -T "TRACKNUMBER=%n" -T "GENRE=%m" -T "COMMENT=%e" %s -o %d
TOC извлечённого CD
     Трек |   Старт  | Длительность | Начальный сектор | Конечный сектор
    ---------------------------------------------------------------------
       1  |  0:00.00 |    5:32.02   |           0      |      24901
       2  |  5:32.02 |    5:09.15   |       24902      |      48091
       3  | 10:41.17 |    4:34.04   |       48092      |      68645
Характеристики диапазона извлечения и сообщения об ошибках
Выбранный диапазон
     Имя файла D:\FLAC\1988 Guesch Patti   - Let Be Must The Queen 12'' UK flac\Guesch Patti   - Let Be Must The Queen 12'' UK.wav
     Пиковый уровень 100.0 %
     Качество диапазона 100.0 %
     CRC теста 8B2287AF
     CRC копии 8B2287AF
     Копирование... OK
Ошибок не произошло
AccurateRip: сводка
Трек  1  нет в базе данных
Трек  2  нет в базе данных
Трек  3  нет в базе данных
Ни одного трека нет в базе AccurateRip
Конец отчёта
Код:
REM GENRE Pop
REM DATE 1988
REM DISCID 19039303
REM COMMENT "ExactAudioCopy v0.99pb3"
PERFORMER "Guesch Patti  "
TITLE "Let Be Must The Queen 12'' UK"
FILE "Guesch Patti   - Let Be Must The Queen 12'' UK.flac" WAVE
  TRACK 01 AUDIO
    TITLE "Let Be Must The Queen (Maxi Version)"
    PERFORMER "Guesch Patti  "
    INDEX 01 00:00:00
  TRACK 02 AUDIO
    TITLE "Etienne (Remix Club)"
    PERFORMER "Guesch Patti  "
    INDEX 01 05:32:02
  TRACK 03 AUDIO
    TITLE "Tout Seul"
    PERFORMER "Guesch Patti  "
    INDEX 01 10:41:17

Благодарю Dattura за помощь в создании этой паздачи.
Правила, инструкции, FAQ!!!
Торрент  Добавлен [26 мар 2019, 19:18] Скачать торрент Магнет ссылка
Скачать торрент
[ Размер 17.23 КБ / Просмотров 3 ]

Статус
Проверен 
 
Размер  195.67 МБ
Приватный: Нет (DHT включён)
.torrent скачан  1
 


     Отправить личное сообщение
   
Страница 1 из 1
Показать сообщения за:  Поле сортировки  
Начать новую тему Ответить на тему


Сейчас этот форум просматривают: нет зарегистрированных пользователей и гости: 0


Вы не можете начинать темы
Вы не можете отвечать на сообщения
Вы не можете редактировать свои сообщения
Вы не можете удалять свои сообщения
Вы не можете добавлять вложения

Перейти:  
cron