Начать новую тему Ответить на тему
Статистика раздачи
Размер: 370.37 МБ | Добавлен: 26 мар 2019, 18:43 | Скачали: 0
Сидеров: 0  [0 байт/сек]    Личеров: 0  [0 байт/сек]
Пред. тема | След. тема 

Автор
Сообщение

СообщениеДобавлено: 26 мар 2019, 18:43 

Ответить с цитатой 

NU / AlphaBravoShockpopDisco! (Japan Edition)
Жанр: Pop-Rock, Soft Rock
Страна-производитель диска: Japan
Год издания диска: 2003
Издатель (лейбл): Avex Trax
Номер по каталогу: AVCD-17452
Аудиокодек: FLAC (*.flac)
Тип рипа: tracks+.cue
Битрейт аудио: lossless
Продолжительность: 52:44
Источник (релизер): Собственный рип
Наличие сканов в содержимом раздачи: да
Треклист:
1 San Francisco 3:16
2 Any Other Girl 3:26
3 Are You Havin' Fun? 3:54
4 I Am Like You 3:11
5 Hey!J. 3:46
6 Disco Hurts 2:31
7 Boy Don't Run 3:14
8 Leo Go Low 3:29
9 8-9-10 3:20
10 Good For Me 3:36
11 Factory Girl 2:26
12 Any Other Girl (Planet Funk Posillipo Club Mix) 8:39
13 Any Other Girl (Jason Nevins Electric Club Remix) 7:52
Код:
X Lossless Decoder version 20111113 (137.1)
XLD extraction logfile from 2011-12-26 13:29:05 +0300
N.U. / AlphaBravoShockpopDisco!
Used drive : HL-DT-ST DVD-RW GH41N (revision PQ06)
Ripper mode             : CDParanoia III 10.2
Disable audio cache     : OK for the drive with a cache less than 2750KiB
Make use of C2 pointers : NO
Read offset correction  : 667
Max retry count         : 100
Gap status              : Analyzed, Appended
TOC of the extracted CD
     Track |   Start  |  Length  | Start sector | End sector
    ---------------------------------------------------------
        1  | 00:00:00 | 03:16:00 |         0    |    14699
        2  | 03:16:00 | 03:25:72 |     14700    |    30146
        3  | 06:41:72 | 03:54:15 |     30147    |    47711
        4  | 10:36:12 | 03:11:23 |     47712    |    62059
        5  | 13:47:35 | 03:45:72 |     62060    |    79006
        6  | 17:33:32 | 02:31:45 |     79007    |    90376
        7  | 20:05:02 | 03:14:55 |     90377    |   104981
        8  | 23:19:57 | 03:29:25 |    104982    |   120681
        9  | 26:49:07 | 03:20:58 |    120682    |   135739
       10  | 30:09:65 | 03:36:40 |    135740    |   151979
       11  | 33:46:30 | 02:25:72 |    151980    |   162926
       12  | 36:12:27 | 08:39:25 |    162927    |   201876
       13  | 44:51:52 | 07:53:00 |    201877    |   237351
List of alternate offset correction values
        #  | Absolute | Relative | Confidence
    ------------------------------------------
        1  |    764   |     97   |      1
AccurateRip Summary
    Track 01 : OK (confidence 1, with different offset)
    Track 02 : OK (confidence 1, with different offset)
    Track 03 : OK (confidence 1, with different offset)
    Track 04 : OK (confidence 1, with different offset)
    Track 05 : OK (confidence 1, with different offset)
    Track 06 : OK (confidence 1, with different offset)
    Track 07 : OK (confidence 1, with different offset)
    Track 08 : OK (confidence 1, with different offset)
    Track 09 : OK (confidence 1, with different offset)
    Track 10 : OK (confidence 1, with different offset)
    Track 11 : OK (confidence 1, with different offset)
    Track 12 : OK (confidence 1, with different offset)
    Track 13 : OK (confidence 1, with different offset)
        ->All tracks accurately ripped.
All Tracks
    Album gain             : -8.34 dB
    Peak                   : 0.992188
    Statistics
        Read error                           : 0
        Skipped (treated as error)           : 0
        Edge jitter error (maybe fixed)      : 0
        Atom jitter error (maybe fixed)      : 0
        Drift error (maybe fixed)            : 0
        Dropped bytes error (maybe fixed)    : 0
        Duplicated bytes error (maybe fixed) : 0
Track 01
    Filename : /Users/Sorokinoff/Music/Rembo Music/NU - AlphaBravoShockpopDisco! [2003]/01 N.U. - San Francisco.flac
    Pre-gap length : 00:02:00
    Track gain             : -8.02 dB
    Peak                   : 0.979980
    CRC32 hash (test run)  : 92530214
    CRC32 hash             : 92530214
    CRC32 hash (skip zero) : 295A81EB
    AccurateRip signature  : 720FB364
        ->Accurately ripped! (confidence 1)
          (matched with the different offset correction value;
           calculated using an additional offset of 97;
           the signature after correction is: 2278BBDD)
    Statistics
        Read error                           : 0
        Skipped (treated as error)           : 0
        Edge jitter error (maybe fixed)      : 0
        Atom jitter error (maybe fixed)      : 0
        Drift error (maybe fixed)            : 0
        Dropped bytes error (maybe fixed)    : 0
        Duplicated bytes error (maybe fixed) : 0
        Inconsistency in error sectors       : 0
Track 02
    Filename : /Users/Sorokinoff/Music/Rembo Music/NU - AlphaBravoShockpopDisco! [2003]/02 N.U. - Any Other Girl.flac
    Pre-gap length : 00:01:33
    Track gain             : -9.18 dB
    Peak                   : 0.980011
    CRC32 hash (test run)  : D94C924E
    CRC32 hash             : D94C924E
    CRC32 hash (skip zero) : C5152BF9
    AccurateRip signature  : EFEAB30A
        ->Accurately ripped! (confidence 1)
          (matched with the different offset correction value;
           calculated using an additional offset of 97;
           the signature after correction is: 15337F1E)
    Statistics
        Read error                           : 0
        Skipped (treated as error)           : 0
        Edge jitter error (maybe fixed)      : 0
        Atom jitter error (maybe fixed)      : 0
        Drift error (maybe fixed)            : 0
        Dropped bytes error (maybe fixed)    : 0
        Duplicated bytes error (maybe fixed) : 0
        Inconsistency in error sectors       : 0
Track 03
    Filename : /Users/Sorokinoff/Music/Rembo Music/NU - AlphaBravoShockpopDisco! [2003]/03 N.U. - Are You Havin' Fun?.flac
    Pre-gap length : 00:01:55
    Track gain             : -8.53 dB
    Peak                   : 0.980011
    CRC32 hash (test run)  : 281D419C
    CRC32 hash             : 281D419C
    CRC32 hash (skip zero) : A261B2F6
    AccurateRip signature  : D7730B33
        ->Accurately ripped! (confidence 1)
          (matched with the different offset correction value;
           calculated using an additional offset of 97;
           the signature after correction is: 441A01D4)
    Statistics
        Read error                           : 0
        Skipped (treated as error)           : 0
        Edge jitter error (maybe fixed)      : 0
        Atom jitter error (maybe fixed)      : 0
        Drift error (maybe fixed)            : 0
        Dropped bytes error (maybe fixed)    : 0
        Duplicated bytes error (maybe fixed) : 0
        Inconsistency in error sectors       : 0
Track 04
    Filename : /Users/Sorokinoff/Music/Rembo Music/NU - AlphaBravoShockpopDisco! [2003]/04 N.U. - I Am Like You.flac
    Pre-gap length : 00:01:45
    Track gain             : -8.07 dB
    Peak                   : 0.979980
    CRC32 hash (test run)  : 6647BA66
    CRC32 hash             : 6647BA66
    CRC32 hash (skip zero) : 5CA17EEA
    AccurateRip signature  : DE73C662
        ->Accurately ripped! (confidence 1)
          (matched with the different offset correction value;
           calculated using an additional offset of 97;
           the signature after correction is: 909C01DB)
    Statistics
        Read error                           : 0
        Skipped (treated as error)           : 0
        Edge jitter error (maybe fixed)      : 0
        Atom jitter error (maybe fixed)      : 0
        Drift error (maybe fixed)            : 0
        Dropped bytes error (maybe fixed)    : 0
        Duplicated bytes error (maybe fixed) : 0
        Inconsistency in error sectors       : 0
Track 05
    Filename : /Users/Sorokinoff/Music/Rembo Music/NU - AlphaBravoShockpopDisco! [2003]/05 N.U. - Hey! J..flac
    Pre-gap length : 00:01:68
    Track gain             : -9.59 dB
    Peak                   : 0.980011
    CRC32 hash (test run)  : 9D75B830
    CRC32 hash             : 9D75B830
    CRC32 hash (skip zero) : 53647F1F
    AccurateRip signature  : 3D2DC637
        ->Accurately ripped! (confidence 1)
          (matched with the different offset correction value;
           calculated using an additional offset of 97;
           the signature after correction is: 19431F5A)
    Statistics
        Read error                           : 0
        Skipped (treated as error)           : 0
        Edge jitter error (maybe fixed)      : 0
        Atom jitter error (maybe fixed)      : 0
        Drift error (maybe fixed)            : 0
        Dropped bytes error (maybe fixed)    : 0
        Duplicated bytes error (maybe fixed) : 0
        Inconsistency in error sectors       : 0
Track 06
    Filename : /Users/Sorokinoff/Music/Rembo Music/NU - AlphaBravoShockpopDisco! [2003]/06 N.U. - Disco Hurts.flac
    Pre-gap length : 00:01:42
    Track gain             : -8.75 dB
    Peak                   : 0.980011
    CRC32 hash (test run)  : C7CED121
    CRC32 hash             : C7CED121
    CRC32 hash (skip zero) : 302110D0
    AccurateRip signature  : D33DA5AB
        ->Accurately ripped! (confidence 1)
          (matched with the different offset correction value;
           calculated using an additional offset of 97;
           the signature after correction is: 8B7FCDD0)
    Statistics
        Read error                           : 0
        Skipped (treated as error)           : 0
        Edge jitter error (maybe fixed)      : 0
        Atom jitter error (maybe fixed)      : 0
        Drift error (maybe fixed)            : 0
        Dropped bytes error (maybe fixed)    : 0
        Duplicated bytes error (maybe fixed) : 0
        Inconsistency in error sectors       : 0
Track 07
    Filename : /Users/Sorokinoff/Music/Rembo Music/NU - AlphaBravoShockpopDisco! [2003]/07 N.U. - Boy Don't Run.flac
    Pre-gap length : 00:00:42
    Track gain             : -5.88 dB
    Peak                   : 0.979980
    CRC32 hash (test run)  : 40C7A837
    CRC32 hash             : 40C7A837
    CRC32 hash (skip zero) : 6BE82839
    AccurateRip signature  : B3B4446C
        ->Accurately ripped! (confidence 1)
          (matched with the different offset correction value;
           calculated using an additional offset of 97;
           the signature after correction is: F279C300)
    Statistics
        Read error                           : 0
        Skipped (treated as error)           : 0
        Edge jitter error (maybe fixed)      : 0
        Atom jitter error (maybe fixed)      : 0
        Drift error (maybe fixed)            : 0
        Dropped bytes error (maybe fixed)    : 0
        Duplicated bytes error (maybe fixed) : 0
        Inconsistency in error sectors       : 0
Track 08
    Filename : /Users/Sorokinoff/Music/Rembo Music/NU - AlphaBravoShockpopDisco! [2003]/08 N.U. - Leo Go Low.flac
    Track gain             : -5.50 dB
    Peak                   : 0.979980
    CRC32 hash (test run)  : 12006E3C
    CRC32 hash             : 12006E3C
    CRC32 hash (skip zero) : 91321F0F
    AccurateRip signature  : 699E3B0B
        ->Accurately ripped! (confidence 1)
          (matched with the different offset correction value;
           calculated using an additional offset of 97;
           the signature after correction is: F6EA0DF8)
    Statistics
        Read error                           : 0
        Skipped (treated as error)           : 0
        Edge jitter error (maybe fixed)      : 0
        Atom jitter error (maybe fixed)      : 0
        Drift error (maybe fixed)            : 0
        Dropped bytes error (maybe fixed)    : 0
        Duplicated bytes error (maybe fixed) : 0
        Inconsistency in error sectors       : 0
Track 09
    Filename : /Users/Sorokinoff/Music/Rembo Music/NU - AlphaBravoShockpopDisco! [2003]/09 N.U. - 8-9-10.flac
    Pre-gap length : 00:02:07
    Track gain             : -9.33 dB
    Peak                   : 0.980011
    CRC32 hash (test run)  : 7B3DA737
    CRC32 hash             : 7B3DA737
    CRC32 hash (skip zero) : 2618ABD5
    AccurateRip signature  : EEE0A757
        ->Accurately ripped! (confidence 1)
          (matched with the different offset correction value;
           calculated using an additional offset of 97;
           the signature after correction is: BC29D753)
    Statistics
        Read error                           : 0
        Skipped (treated as error)           : 0
        Edge jitter error (maybe fixed)      : 0
        Atom jitter error (maybe fixed)      : 0
        Drift error (maybe fixed)            : 0
        Dropped bytes error (maybe fixed)    : 0
        Duplicated bytes error (maybe fixed) : 0
        Inconsistency in error sectors       : 0
Track 10
    Filename : /Users/Sorokinoff/Music/Rembo Music/NU - AlphaBravoShockpopDisco! [2003]/10 N.U. - Good For Me.flac
    Pre-gap length : 00:00:50
    Track gain             : -6.09 dB
    Peak                   : 0.980011
    CRC32 hash (test run)  : 66FB5540
    CRC32 hash             : 66FB5540
    CRC32 hash (skip zero) : 2D670578
    AccurateRip signature  : 245655BB
        ->Accurately ripped! (confidence 1)
          (matched with the different offset correction value;
           calculated using an additional offset of 97;
           the signature after correction is: 36E3BD9C)
    Statistics
        Read error                           : 0
        Skipped (treated as error)           : 0
        Edge jitter error (maybe fixed)      : 0
        Atom jitter error (maybe fixed)      : 0
        Drift error (maybe fixed)            : 0
        Dropped bytes error (maybe fixed)    : 0
        Duplicated bytes error (maybe fixed) : 0
        Inconsistency in error sectors       : 0
Track 11
    Filename : /Users/Sorokinoff/Music/Rembo Music/NU - AlphaBravoShockpopDisco! [2003]/11 N.U. - Factory Girl.flac
    Pre-gap length : 00:02:40
    Track gain             : -8.96 dB
    Peak                   : 0.980011
    CRC32 hash (test run)  : 2415FE0E
    CRC32 hash             : 2415FE0E
    CRC32 hash (skip zero) : A4C79951
    AccurateRip signature  : 2BF243D5
        ->Accurately ripped! (confidence 1)
          (matched with the different offset correction value;
           calculated using an additional offset of 97;
           the signature after correction is: 59BDE1F7)
    Statistics
        Read error                           : 0
        Skipped (treated as error)           : 0
        Edge jitter error (maybe fixed)      : 0
        Atom jitter error (maybe fixed)      : 0
        Drift error (maybe fixed)            : 0
        Dropped bytes error (maybe fixed)    : 0
        Duplicated bytes error (maybe fixed) : 0
        Inconsistency in error sectors       : 0
Track 12
    Filename : /Users/Sorokinoff/Music/Rembo Music/NU - AlphaBravoShockpopDisco! [2003]/12 N.U. - Any Other Girl (Planet Funk Posillipo Club Mix).flac
    Pre-gap length : 00:01:05
    Track gain             : -6.71 dB
    Peak                   : 0.992188
    CRC32 hash (test run)  : 534497F5
    CRC32 hash             : 534497F5
    CRC32 hash (skip zero) : 0A63BD11
    AccurateRip signature  : C4BC3573
        ->Accurately ripped! (confidence 1)
          (matched with the different offset correction value;
           calculated using an additional offset of 97;
           the signature after correction is: B0E650B9)
    Statistics
        Read error                           : 0
        Skipped (treated as error)           : 0
        Edge jitter error (maybe fixed)      : 0
        Atom jitter error (maybe fixed)      : 0
        Drift error (maybe fixed)            : 0
        Dropped bytes error (maybe fixed)    : 0
        Duplicated bytes error (maybe fixed) : 0
        Inconsistency in error sectors       : 0
Track 13
    Filename : /Users/Sorokinoff/Music/Rembo Music/NU - AlphaBravoShockpopDisco! [2003]/13 N.U. - Any Other Girl (Jason Nevins Electric Club Remix).flac
    Pre-gap length : 00:01:50
    Track gain             : -8.06 dB
    Peak                   : 0.992188
    CRC32 hash (test run)  : D2F45B9C
    CRC32 hash             : D2F45B9C
    CRC32 hash (skip zero) : B2278BC8
    AccurateRip signature  : B46902A4
        ->Accurately ripped! (confidence 1)
          (matched with the different offset correction value;
           calculated using an additional offset of 97;
           the signature after correction is: 324C2F16)
    Statistics
        Read error                           : 0
        Skipped (treated as error)           : 0
        Edge jitter error (maybe fixed)      : 0
        Atom jitter error (maybe fixed)      : 0
        Drift error (maybe fixed)            : 0
        Dropped bytes error (maybe fixed)    : 0
        Duplicated bytes error (maybe fixed) : 0
        Inconsistency in error sectors       : 0
No errors occurred
End of status report
Код:
TITLE "AlphaBravoShockpopDisco!"
PERFORMER "N.U."
REM GENRE "Rock"
REM DATE "2003"
REM DISCID 9C0C5C0D
FILE "01 N.U. - San Francisco.wav" WAVE
  TRACK 01 AUDIO
    TITLE "San Francisco"
    INDEX 01 00:00:00
  TRACK 02 AUDIO
    TITLE "Any Other Girl"
    INDEX 00 03:14:42
FILE "02 N.U. - Any Other Girl.wav" WAVE
    INDEX 01 00:00:00
  TRACK 03 AUDIO
    TITLE "Are You Havin' Fun?"
    INDEX 00 03:24:17
FILE "03 N.U. - Are You Havin' Fun?.wav" WAVE
    INDEX 01 00:00:00
  TRACK 04 AUDIO
    TITLE "I Am Like You"
    INDEX 00 03:52:45
FILE "04 N.U. - I Am Like You.wav" WAVE
    INDEX 01 00:00:00
  TRACK 05 AUDIO
    TITLE "Hey! J."
    INDEX 00 03:09:30
FILE "05 N.U. - Hey! J..wav" WAVE
    INDEX 01 00:00:00
  TRACK 06 AUDIO
    TITLE "Disco Hurts"
    INDEX 00 03:44:30
FILE "06 N.U. - Disco Hurts.wav" WAVE
    INDEX 01 00:00:00
  TRACK 07 AUDIO
    TITLE "Boy Don't Run"
    INDEX 00 02:31:03
FILE "07 N.U. - Boy Don't Run.wav" WAVE
    INDEX 01 00:00:00
FILE "08 N.U. - Leo Go Low.wav" WAVE
  TRACK 08 AUDIO
    TITLE "Leo Go Low"
    INDEX 01 00:00:00
  TRACK 09 AUDIO
    TITLE "8-9-10"
    INDEX 00 03:27:18
FILE "09 N.U. - 8-9-10.wav" WAVE
    INDEX 01 00:00:00
  TRACK 10 AUDIO
    TITLE "Good For Me"
    INDEX 00 03:20:08
FILE "10 N.U. - Good For Me.wav" WAVE
    INDEX 01 00:00:00
  TRACK 11 AUDIO
    TITLE "Factory Girl"
    INDEX 00 03:34:00
FILE "11 N.U. - Factory Girl.wav" WAVE
    INDEX 01 00:00:00
  TRACK 12 AUDIO
    TITLE "Any Other Girl (Planet Funk Posillipo Club Mix)"
    INDEX 00 02:24:67
FILE "12 N.U. - Any Other Girl (Planet Funk Posillipo Club Mix).wav" WAVE
    INDEX 01 00:00:00
  TRACK 13 AUDIO
    TITLE "Any Other Girl (Jason Nevins Electric Club Remix)"
    INDEX 00 08:37:50
FILE "13 N.U. - Any Other Girl (Jason Nevins Electric Club Remix).wav" WAVE
    INDEX 01 00:00:00
Правила, инструкции, FAQ!!!
Торрент  Добавлен [26 мар 2019, 18:43] Скачать торрент Магнет ссылка
Скачать торрент
[ Размер 16.21 КБ / Просмотров 1 ]

Статус
Проверен 
 
Размер  370.37 МБ
Приватный: Нет (DHT включён)
.torrent скачан  0
 


     Отправить личное сообщение
   
Страница 1 из 1
Показать сообщения за:  Поле сортировки  
Начать новую тему Ответить на тему


Сейчас этот форум просматривают: нет зарегистрированных пользователей и гости: 0


Вы не можете начинать темы
Вы не можете отвечать на сообщения
Вы не можете редактировать свои сообщения
Вы не можете удалять свои сообщения
Вы не можете добавлять вложения

Перейти:  
cron