Начать новую тему Ответить на тему
Статистика раздачи
Размер: 378.3 МБ | Добавлен: 26 мар 2019, 21:07 | Скачали: 0
Сидеров: 0  [0 байт/сек]    Личеров: 0  [0 байт/сек]
Пред. тема | След. тема 

Автор
Сообщение

СообщениеДобавлено: 26 мар 2019, 21:07 

Ответить с цитатой 

Alanis Morissette - So-Called Chaos [Enhanced Japan Promo CD]
Жанр: Pop-Rock & Soft Rock
Страна-производитель диска: Japan
Год издания: 2004
Издатель (лейбл): Warner Music
Номер по каталогу: WPCR-11790
Аудиокодек: FLAC (*.flac)
Тип рипа: image+.cue
Битрейт аудио: lossless
Источник (релизер): Собственный диск
Треклист:
01. Eight Easy Steps (2:53)
02. Out Is Through (3:53)
03. Excuses (3:32)
04. Doth I Protest Too Much (4:03)
05. Knees Of My Bees (3:41)
06. So-Called Chaos (5:04)
07. Not All Me (3:58)
08. This Grudge (5:08)
09. Spineless (4:16)
10. Everything (4:39)
11. Everything (Vancouver Sessions) (4:43)
Код:
Exact Audio Copy V1.0 beta 2 from 29. April 2011
Отчёт EAC об извлечении, выполненном 14. марта 2012, 19:44
Alanis Morissette / So-Called Chaos
Дисковод: MATSHITADVD-RAM UJ8A0AS   Adapter: 0  ID: 1
Режим чтения                 : Достоверность
Использование точного потока : Да
Отключение кэша аудио        : Да
Использование указателей C2  : Нет
Коррекция смещения при чтении                     : 102
Способность читать области Lead-in и Lead-out     : Нет
Заполнение пропущенных сэмплов тишиной            : Да
Удаление блоков с тишиной в начале и конце        : Нет
При вычислениях CRC использовались нулевые сэмплы : Да
Интерфейс                                         : Встроенный Win32-интерфейс для Win NT/2000
Выходной формат          : Пользовательский кодировщик
Выбранный битрейт        : 128 kBit/s
Качество                 : Высокий
Добавление ID3-тега      : Нет
Утилита сжатия           : C:\Program Files (x86)\Exact Audio Copy\Flac\flac.exe
Дополнительные параметры : -V -8 -T "Date=%year%" -T "Genre=%genre%" %source%
TOC извлечённого CD
     Трек |   Старт  | Длительность | Начальный сектор | Конечный сектор
    ---------------------------------------------------------------------
       1  |  0:00.00 |    2:52.47   |           0      |      12946
       2  |  2:52.47 |    3:52.68   |       12947      |      30414
       3  |  6:45.40 |    3:32.27   |       30415      |      46341
       4  | 10:17.67 |    4:03.28   |       46342      |      64594
       5  | 14:21.20 |    3:41.02   |       64595      |      81171
       6  | 18:02.22 |    5:03.65   |       81172      |     103961
       7  | 23:06.12 |    3:58.08   |      103962      |     121819
       8  | 27:04.20 |    5:07.65   |      121820      |     144909
       9  | 32:12.10 |    4:15.55   |      144910      |     164089
      10  | 36:27.65 |    4:39.11   |      164090      |     185025
      11  | 41:07.01 |    4:42.39   |      185026      |     206214
      12  | 48:21.40 |    8:53.21   |      217615      |     257610
Характеристики диапазона извлечения и сообщения об ошибках
Выбранный диапазон
     Имя файла G:\Music\CD-DA\Pop & Soft  Rock\Новая папка\Alanis Morissette - So-Called Chaos.wav
     Пиковый уровень 99.8 %
     Скорость извлечения 1.9 X
     Качество диапазона 100.0 %
     CRC теста CE4CB108
     CRC копии CE4CB108
     Копирование... OK
Ошибок не произошло
Конец отчёта
==== Контрольная сумма отчёта AC03DFCFA1AC756F71A4EC178FCEB4FEE5AD302B0CB97C21B64723E0E5D706AA ====
Формат: QuickTime
Видео: Sorenson 3, 320 x 240, 4/3, 687 Kbps, 15,000 fps, 0.596 b/px
Аудио: mp3, 352 Kbps, CBR, 44.1 KHz, 2 ch.
Продолжительность: 3mn 9s
Формат: QuickTime
Видео: Sorenson 3, 320 x 240, 4/3, 659 Kbps, 15,000 fps, 0.572 b/px
Аудио: mp3, 352 Kbps, CBR, 44.1 KHz, 2 ch.
Продолжительность: 4mn 12s
Если сдохнут ссылки,или кому-то понадобится японский буклет пишите в личку.
Представленный материал предназначен только для ознакомления, приобретайте фирменную продукцию.
Правила, инструкции, FAQ!!!
Торрент  Добавлен [26 мар 2019, 21:07] Скачать торрент Магнет ссылка
Скачать торрент
[ Размер 16.16 КБ / Просмотров 0 ]

Статус
Проверен 
 
Размер  378.3 МБ
Приватный: Нет (DHT включён)
.torrent скачан  0
 


     Отправить личное сообщение
   
Страница 1 из 1
Показать сообщения за:  Поле сортировки  
Начать новую тему Ответить на тему


Сейчас этот форум просматривают: нет зарегистрированных пользователей и гости: 0


Вы не можете начинать темы
Вы не можете отвечать на сообщения
Вы не можете редактировать свои сообщения
Вы не можете удалять свои сообщения
Вы не можете добавлять вложения

Перейти:  
cron