Начать новую тему Ответить на тему
Статистика раздачи
Размер: 493.37 МБ | Добавлен: 28 апр 2020, 19:54 | Скачали: 0
Сидеров: 1  [0 байт/сек]    Личеров: 0  [0 байт/сек]
Пред. тема | След. тема 

Автор
Сообщение

СообщениеДобавлено: 28 апр 2020, 19:54 

Ответить с цитатой 

Soda Stereo - MTV Unplugged Comfort Y Música Para Volar (2007 Remastered)
Жанр: Pop Rock
Носитель: CD
Страна-производитель диска (релиза): Argentina
Год издания: 2007
Издатель (лейбл): Sony BMG Music Entertainment
Номер по каталогу: 8869 717731-2
Страна исполнителя (группы): Argentina
Аудиокодек: WavPack (*.wv)
Тип рипа: tracks+.cue
Продолжительность: 01:10:39
Источник: собственный рип
Наличие сканов в содержимом раздачи: нет
Треклист:
01 Un misil en mi placard
02 En la ciudad de la furia
03 Entre caníbales
04 Pasos
05 Zoom
06 Cuando pase el temblor
07 Té para tres
08 Angel eléctrico
09 Terapia de amor intensiva
10 Disco eterno
11 Ella usó mi cabeza como un revólver
12 Paseando por Roma
13 Génesis
Код:
Exact Audio Copy V1.5 from 20. February 2020
EAC extraction logfile from 15. April 2020, 14:18
Soda Stereo / Confort y Musica Para Volar
Used drive  : HL-DT-STDVDRAM GUC0N   Adapter: 1  ID: 0
Read mode               : Secure
Utilize accurate stream : Yes
Defeat audio cache      : Yes
Make use of C2 pointers : No
Read offset correction                      : 690
Overread into Lead-In and Lead-Out          : No
Fill up missing offset samples with silence : Yes
Delete leading and trailing silent blocks   : No
Null samples used in CRC calculations       : Yes
Used interface                              : Native Win32 interface for Win NT & 2000
Gap handling                                : Appended to previous track
Used output format              : User Defined Encoder
Selected bitrate                : 128 kBit/s
Quality                         : High
Add ID3 tag                     : No
Command line compressor         : C:\Program Files (x86)\Exact Audio Copy\wavpack-5.2.0-x64\wavpack.exe
Additional command line options :  -hm -w "Year=%year%" -w "Genre=%genre%" %source% %dest%
TOC of the extracted CD
     Track |   Start  |  Length  | Start sector | End sector
    ---------------------------------------------------------
        1  |  0:00.00 |  4:31.07 |         0    |    20331
        2  |  4:31.07 |  8:38.52 |     20332    |    59233
        3  | 13:09.59 |  4:54.23 |     59234    |    81306
        4  | 18:04.07 |  2:43.10 |     81307    |    93541
        5  | 20:47.17 |  3:21.25 |     93542    |   108641
        6  | 24:08.42 |  5:09.23 |    108642    |   131839
        7  | 29:17.65 |  4:06.72 |    131840    |   150361
        8  | 33:24.62 |  4:44.51 |    150362    |   171712
        9  | 38:09.38 |  6:46.53 |    171713    |   202215
       10  | 44:56.16 |  7:07.02 |    202216    |   234242
       11  | 52:03.18 |  5:50.44 |    234243    |   260536
       12  | 57:53.62 |  4:09.45 |    260537    |   279256
       13  | 62:03.32 |  8:35.52 |    279257    |   317933
Track  1
     Filename C:\Users\edmun\Downloads\Soda Stereo - Comfort Y Música Para Volar - 1996\01 Un Misil En Mi Placard.wav
     Pre-gap length  0:00:02.00
     Peak level 97.7 %
     Extraction speed 2.9 X
     Track quality 100.0 %
     Test CRC 0B50B0BE
     Copy CRC 0B50B0BE
     Copy OK
Track  2
     Filename C:\Users\edmun\Downloads\Soda Stereo - Comfort Y Música Para Volar - 1996\02 En La Ciudad De La Furia.wav
     Peak level 99.0 %
     Extraction speed 3.5 X
     Track quality 100.0 %
     Test CRC 0EFA6163
     Copy CRC 0EFA6163
     Copy OK
Track  3
     Filename C:\Users\edmun\Downloads\Soda Stereo - Comfort Y Música Para Volar - 1996\03 Entre Canibales.wav
     Peak level 100.0 %
     Extraction speed 3.8 X
     Track quality 100.0 %
     Test CRC BBF8327B
     Copy CRC BBF8327B
     Copy OK
Track  4
     Filename C:\Users\edmun\Downloads\Soda Stereo - Comfort Y Música Para Volar - 1996\04 Pasos.wav
     Peak level 97.7 %
     Extraction speed 3.7 X
     Track quality 100.0 %
     Test CRC 0C5E1D51
     Copy CRC 0C5E1D51
     Copy OK
Track  5
     Filename C:\Users\edmun\Downloads\Soda Stereo - Comfort Y Música Para Volar - 1996\05 Zoom.wav
     Peak level 100.0 %
     Extraction speed 3.9 X
     Track quality 100.0 %
     Test CRC 5F83326C
     Copy CRC 5F83326C
     Copy OK
Track  6
     Filename C:\Users\edmun\Downloads\Soda Stereo - Comfort Y Música Para Volar - 1996\06 Cuando Pase El Temblor.wav
     Peak level 100.0 %
     Extraction speed 4.4 X
     Track quality 100.0 %
     Test CRC BE4EA706
     Copy CRC BE4EA706
     Copy OK
Track  7
     Filename C:\Users\edmun\Downloads\Soda Stereo - Comfort Y Música Para Volar - 1996\07 Té Para Tres.wav
     Peak level 97.7 %
     Extraction speed 4.0 X
     Track quality 99.9 %
     Test CRC CF799A38
     Copy CRC CF799A38
     Copy OK
Track  8
     Filename C:\Users\edmun\Downloads\Soda Stereo - Comfort Y Música Para Volar - 1996\08 Angel Eléctrico.wav
     Peak level 97.7 %
     Extraction speed 4.8 X
     Track quality 100.0 %
     Test CRC 9E249CE5
     Copy CRC 9E249CE5
     Copy OK
Track  9
     Filename C:\Users\edmun\Downloads\Soda Stereo - Comfort Y Música Para Volar - 1996\09 Terapia De Amor Intensiva.wav
     Peak level 100.0 %
     Extraction speed 4.8 X
     Track quality 99.9 %
     Test CRC 8729FF83
     Copy CRC 8729FF83
     Copy OK
Track 10
     Filename C:\Users\edmun\Downloads\Soda Stereo - Comfort Y Música Para Volar - 1996\10 Disco Eterno.wav
     Peak level 100.0 %
     Extraction speed 5.5 X
     Track quality 100.0 %
     Test CRC A5A9AB3A
     Copy CRC A5A9AB3A
     Copy OK
Track 11
     Filename C:\Users\edmun\Downloads\Soda Stereo - Comfort Y Música Para Volar - 1996\11 Ella Uso Mi Cabeza Como Un Revolver.wav
     Peak level 97.7 %
     Extraction speed 5.1 X
     Track quality 99.9 %
     Test CRC 5A6E3AD4
     Copy CRC 5A6E3AD4
     Copy OK
Track 12
     Filename C:\Users\edmun\Downloads\Soda Stereo - Comfort Y Música Para Volar - 1996\12 Paseando por Roma.wav
     Peak level 100.0 %
     Extraction speed 5.6 X
     Track quality 100.0 %
     Test CRC F1E67846
     Copy CRC F1E67846
     Copy OK
Track 13
     Filename C:\Users\edmun\Downloads\Soda Stereo - Comfort Y Música Para Volar - 1996\13 Genesis.wav
     Peak level 100.0 %
     Extraction speed 6.2 X
     Track quality 100.0 %
     Test CRC A78828BE
     Copy CRC A78828BE
     Copy OK
No errors occurred
End of status report
==== Log checksum 7061BA36DE901681538DE9930EDF7EBBC1B68A21B05FC06936726A04D462A665 ====
Код:
REM GENRE Rock
REM DATE 1996
REM DISCID BC108F0D
REM COMMENT "ExactAudioCopy v1.5"
PERFORMER "Soda Stereo"
TITLE "Confort y Musica Para Volar"
REM COMPOSER ""
FILE "01 Un Misil En Mi Placard.wav" WAVE
  TRACK 01 AUDIO
    TITLE "Un Misil En Mi Placard"
    PERFORMER "Soda Stereo"
    REM COMPOSER ""
    INDEX 01 00:00:00
FILE "02 En La Ciudad De La Furia.wav" WAVE
  TRACK 02 AUDIO
    TITLE "En La Ciudad De La Furia"
    PERFORMER "Soda Stereo"
    REM COMPOSER ""
    INDEX 01 00:00:00
FILE "03 Entre Canibales.wav" WAVE
  TRACK 03 AUDIO
    TITLE "Entre Canibales"
    PERFORMER "Soda Stereo"
    REM COMPOSER ""
    INDEX 01 00:00:00
FILE "04 Pasos.wav" WAVE
  TRACK 04 AUDIO
    TITLE "Pasos"
    PERFORMER "Soda Stereo"
    REM COMPOSER ""
    INDEX 01 00:00:00
FILE "05 Zoom.wav" WAVE
  TRACK 05 AUDIO
    TITLE "Zoom"
    PERFORMER "Soda Stereo"
    REM COMPOSER ""
    INDEX 01 00:00:00
FILE "06 Cuando Pase El Temblor.wav" WAVE
  TRACK 06 AUDIO
    TITLE "Cuando Pase El Temblor"
    PERFORMER "Soda Stereo"
    REM COMPOSER ""
    INDEX 01 00:00:00
FILE "07 Té Para Tres.wav" WAVE
  TRACK 07 AUDIO
    TITLE "Té Para Tres"
    PERFORMER "Soda Stereo"
    REM COMPOSER ""
    INDEX 01 00:00:00
FILE "08 Angel Eléctrico.wav" WAVE
  TRACK 08 AUDIO
    TITLE "Angel Eléctrico"
    PERFORMER "Soda Stereo"
    REM COMPOSER ""
    INDEX 01 00:00:00
FILE "09 Terapia De Amor Intensiva.wav" WAVE
  TRACK 09 AUDIO
    TITLE "Terapia De Amor Intensiva"
    PERFORMER "Soda Stereo"
    REM COMPOSER ""
    INDEX 01 00:00:00
FILE "10 Disco Eterno.wav" WAVE
  TRACK 10 AUDIO
    TITLE "Disco Eterno"
    PERFORMER "Soda Stereo"
    REM COMPOSER ""
    INDEX 01 00:00:00
FILE "11 Ella Uso Mi Cabeza Como Un Revolver.wav" WAVE
  TRACK 11 AUDIO
    TITLE "Ella Uso Mi Cabeza Como Un Revolver"
    PERFORMER "Soda Stereo"
    REM COMPOSER ""
    INDEX 01 00:00:00
FILE "12 Paseando por Roma.wav" WAVE
  TRACK 12 AUDIO
    TITLE "Paseando por Roma"
    PERFORMER "Soda Stereo"
    REM COMPOSER ""
    INDEX 01 00:00:00
FILE "13 Genesis.wav" WAVE
  TRACK 13 AUDIO
    TITLE "Genesis"
    PERFORMER "Soda Stereo"
    REM COMPOSER ""
    INDEX 01 00:00:00
Код:
foobar2000 1.5.2 / Dynamic Range Meter 1.1.1
log date: 2020-04-15 14:27:28
--------------------------------------------------------------------------------
Analyzed: ? / ?
--------------------------------------------------------------------------------
DR         Peak         RMS     Duration Track
--------------------------------------------------------------------------------
DR7       -0.20 dB    -8.28 dB      4:31 ?-01 Un Misil En Mi Placard
DR6       -0.09 dB    -8.50 dB      8:39 ?-02 En La Ciudad De La Furia
DR6        0.00 dB    -7.26 dB      4:54 ?-03 Entre Canibales
DR6       -0.20 dB    -7.49 dB      2:43 ?-04 Pasos
DR7        0.00 dB    -8.53 dB      3:21 ?-05 Zoom
DR8        0.00 dB    -9.33 dB      5:09 ?-06 Cuando Pase El Temblor
DR7       -0.20 dB    -9.59 dB      4:07 ?-07 Té Para Tres
DR6       -0.20 dB    -7.86 dB      4:45 ?-08 Angel Eléctrico
DR6        0.00 dB    -7.54 dB      6:47 ?-09 Terapia De Amor Intensiva
DR7        0.00 dB    -8.64 dB      7:07 ?-10 Disco Eterno
DR5       -0.20 dB    -6.68 dB      5:51 ?-11 Ella Uso Mi Cabeza Como Un Revolver
DR6        0.00 dB    -7.52 dB      4:10 ?-12 Paseando por Roma
DR6        0.00 dB    -7.72 dB      8:36 ?-13 Genesis
--------------------------------------------------------------------------------
Number of tracks:  13
Official DR value: DR6
Samplerate:        44100 Hz
Channels:          2
Bits per sample:   16
Bitrate:           946 kbps
Codec:             WavPack
================================================================================












Gustavo Cerati: Voz, Guitarra acústica, eléctrica y virtual
Zeta Bosio: Bajo, guitarra acústica, coros
Charly Alberti: Batería, percusión
Músicos invitados
Tweety Gonzales: Piano rhodes sampler & sintetizadores
Pedro Fainguersch: Viola
Diego Fainguersch: Cello
Ezequiel Fainguersch: Fagot
Andrea Echeverri: Voz "En la ciudad de la furia"
Правила, инструкции, FAQ!!!
Торрент  Добавлен [28 апр 2020, 19:54] Скачать торрент Магнет ссылка
Скачать торрент
[ Размер 20.68 КБ / Просмотров 7 ]

Статус
Проверен 
 
Размер  493.37 МБ
Приватный: Нет (DHT включён)
.torrent скачан  0
 


     Отправить личное сообщение
   
Страница 1 из 1
Показать сообщения за:  Поле сортировки  
Начать новую тему Ответить на тему


Сейчас этот форум просматривают: нет зарегистрированных пользователей и гости: 0


Вы не можете начинать темы
Вы не можете отвечать на сообщения
Вы не можете редактировать свои сообщения
Вы не можете удалять свои сообщения
Вы не можете добавлять вложения

Перейти:  
cron