Начать новую тему Ответить на тему
Статистика раздачи
Размер: 351.66 МБ | Добавлен: 26 мар 2019, 20:25 | Скачали: 0
Сидеров: 0  [0 байт/сек]    Личеров: 0  [0 байт/сек]
Пред. тема | След. тема 

Автор
Сообщение

СообщениеДобавлено: 26 мар 2019, 20:25 

Ответить с цитатой 

Smokie - The Collection
Жанр: Pop/Rock
Год выпуска диска: 1992
Производитель диска: Made in Germany BMG Ariola 262 538 (AAD)
Аудио кодек: FLAC
Тип рипа: image+.cue
Битрейт аудио: lossless
Продолжительность: 49:21.00
Трэклист:
CD: Smokie - 1992 The Collection
YEAR: 1992
01. Living next door to Alice '76 [0:03:29.09]
02. Mexican girl '78 [0:03:58.70]
03. Wild wild angels '76 [0:03:57.13]
04. Something's been making me blue '76 [0:03:01.62]
05. If you think you know how to love me '75 [0:03:26.10]
06. For a few dollars more '78 [0:03:34.66]
07. Don't play your rock 'n' roll to me '75 [0:03:18.69]
08. Needles and pins '77 [0:02:44.46]
09. It's your life '77 [0:03:34.06]
10. Baby it's you '79 [0:03:51.44]
11. Changing all the times '75 [0:03:22.89]
12. Lay back in the arms of someone '77 [0:04:06.50]
13. Oh Carol '78 [0:03:40.53]
14. I'll meet you at midnight '76 [0:03:15.06]
Total: 49:21.00
#777#777
Код:
Exact Audio Copy V0.99 prebeta 5 from 4. May 2009
EAC extraction logfile from 2. September 2010, 0:47
Smokie / 1992 The Collection
Used drive  : PLEXTOR DVDR   PX-716A   Adapter: 0  ID: 0
Read mode               : Secure
Utilize accurate stream : Yes
Defeat audio cache      : Yes
Make use of C2 pointers : No
Read offset correction                      : 30
Overread into Lead-In and Lead-Out          : Yes
Fill up missing offset samples with silence : Yes
Delete leading and trailing silent blocks   : No
Null samples used in CRC calculations       : Yes
Used interface                              : Native Win32 interface for Win NT & 2000
Used output format              : User Defined Encoder
Selected bitrate                : 1024 kBit/s
Quality                         : High
Add ID3 tag                     : No
Command line compressor         : C:\Program Files (x86)\FLAC\flac.exe
Additional command line options : -8 -V -T "ARTIST=%a" -T "TITLE=%t" -T "ALBUM=%g" -T "DATE=%y" -T "TRACKNUMBER=%n" -T "GENRE=%m" -T "COMMENT=EAC FLAC -8" %s
TOC of the extracted CD
     Track |   Start  |  Length  | Start sector | End sector
    ---------------------------------------------------------
        1  |  0:00.33 |  3:29.07 |        33    |    15714
        2  |  3:29.40 |  3:58.53 |     15715    |    33617
        3  |  7:28.18 |  3:57.10 |     33618    |    51402
        4  | 11:25.28 |  3:01.47 |     51403    |    65024
        5  | 14:27.00 |  3:26.08 |     65025    |    80482
        6  | 17:53.08 |  3:34.50 |     80483    |    96582
        7  | 21:27.58 |  3:18.52 |     96583    |   111484
        8  | 24:46.35 |  2:44.35 |    111485    |   123819
        9  | 27:30.70 |  3:34.05 |    123820    |   139874
       10  | 31:05.00 |  3:51.33 |    139875    |   157232
       11  | 34:56.33 |  3:22.67 |    157233    |   172449
       12  | 38:19.25 |  4:06.38 |    172450    |   190937
       13  | 42:25.63 |  3:40.40 |    190938    |   207477
       14  | 46:06.28 |  3:15.05 |    207478    |   222107
Range status and errors
Selected range
     Filename E:\mtorrent_flac\Smokie - The Collection\Smokie - 1992 The Collection.wav
     Peak level 96.7 %
     Range quality 100.0 %
     Test CRC DB5CE255
     Copy CRC DB5CE255
     Copy OK
No errors occurred
AccurateRip summary
Track  1  accurately ripped (confidence 42)  [90902D1E]
Track  2  accurately ripped (confidence 40)  [4D391C40]
Track  3  accurately ripped (confidence 41)  [A88BB8EA]
Track  4  accurately ripped (confidence 40)  [F66020E8]
Track  5  accurately ripped (confidence 41)  [474EE53F]
Track  6  accurately ripped (confidence 40)  [AAC16609]
Track  7  accurately ripped (confidence 42)  [7A16B1D8]
Track  8  accurately ripped (confidence 42)  [3798B570]
Track  9  accurately ripped (confidence 40)  [28A87097]
Track 10  accurately ripped (confidence 40)  [8CAA0901]
Track 11  accurately ripped (confidence 39)  [4DF35DA8]
Track 12  accurately ripped (confidence 41)  [EACBC0A6]
Track 13  accurately ripped (confidence 41)  [6B59B7B4]
Track 14  accurately ripped (confidence 40)  [C3D561E6]
All tracks accurately ripped
End of status report
Рип (ЕАС) с оригинального CD из моей коллекции. Сканы в комплекте. (.PNG 400dpi)
Правила, инструкции, FAQ!!!
Торрент  Добавлен [26 мар 2019, 20:25] Скачать торрент Магнет ссылка
Скачать торрент
[ Размер 14.8 КБ / Просмотров 3 ]

Статус
Проверен 
 
Размер  351.66 МБ
Приватный: Нет (DHT включён)
.torrent скачан  0
 


     Отправить личное сообщение
   
Страница 1 из 1
Показать сообщения за:  Поле сортировки  
Начать новую тему Ответить на тему


Сейчас этот форум просматривают: нет зарегистрированных пользователей и гости: 0


Вы не можете начинать темы
Вы не можете отвечать на сообщения
Вы не можете редактировать свои сообщения
Вы не можете удалять свои сообщения
Вы не можете добавлять вложения

Перейти:  
cron