Начать новую тему Ответить на тему
Статистика раздачи
Размер: 334.69 МБ | Добавлен: 26 мар 2019, 18:56 | Скачали: 0
Сидеров: 0  [0 байт/сек]    Личеров: 0  [0 байт/сек]
Пред. тема | След. тема 

Автор
Сообщение

СообщениеДобавлено: 26 мар 2019, 18:56 

Ответить с цитатой 

Sisters Morales / Talking To The River
Жанр: Pop-rock
Носитель: CD
Страна-производитель диска (релиза): USA
Год издания: 2008
Издатель (лейбл): Luna Records
Номер по каталогу: DIG131
Страна исполнителя (группы): USA
Аудиокодек: FLAC (*.flac)
Тип рипа: tracks+.cue
Битрейт аудио: lossless
Продолжительность: 0:52:07.
Источник (релизер): clustert
Наличие сканов в содержимом раздачи: да
Треклист:
01. Losing Me To No One [0:04:50.02]
02. Right From The Start [0:03:49.27]
03. World Goes Round [0:06:00.63]
04. Time Off And Peace [0:03:52.49]
05. La Canoera [0:03:43.17]
06. It's Time [0:03:42.10]
07. I Won't Stand Still [0:02:59.10]
08. Say Goodbye [0:04:04.32]
09. Whatcha Gonna Do About It [0:04:14.56]
10. La Mucura [0:05:15.43]
11. Talkin To The River [0:06:14.37]
12. Where Is Love [0:03:20.46]
Код:
Exact Audio Copy V1.0 beta 3 from 29. August 2011
Отчёт EAC об извлечении, выполненном 6. сентября 2015, 2:40
Sisters Morales / Talking To The River
Дисковод: ASUS    DRW-1814BLT   Adapter: 4  ID: 0
Режим чтения                 : Достоверность
Использование точного потока : Да
Отключение кэша аудио        : Да
Использование указателей C2  : Нет
Коррекция смещения при чтении                     : 6
Способность читать области Lead-in и Lead-out     : Нет
Заполнение пропущенных сэмплов тишиной            : Да
Удаление блоков с тишиной в начале и конце        : Нет
При вычислениях CRC использовались нулевые сэмплы : Да
Интерфейс                                         : Встроенный Win32-интерфейс для Win NT/2000
Обработка зазоров                                 : Добавлено к предыдущему треку
Выходной формат          : Пользовательский кодировщик
Выбранный битрейт        : 128 kBit/s
Качество                 : Высокий
Добавление ID3-тега      : Нет
Утилита сжатия           : C:\Program Files\Exact Audio Copy\Flac\flac.exe
Дополнительные параметры :  -V -8 -T "Genre=%genre%" -T "Artist=%artist%" -T "Title=%title%" -T "Album=%albumtitle%" -T "Date=%year%" -T "Tracknumber=%tracknr%" -T "Comment=EAC1.0b2 FLAC -8" %source%
TOC извлечённого CD
     Трек |   Старт  | Длительность | Начальный сектор | Конечный сектор
    ---------------------------------------------------------------------
       1  |  0:00.00 |    4:50.02   |           0      |      21751
       2  |  4:50.02 |    3:49.27   |       21752      |      38953
       3  |  8:39.29 |    6:00.63   |       38954      |      66016
       4  | 14:40.17 |    3:52.49   |       66017      |      83465
       5  | 18:32.66 |    3:43.17   |       83466      |     100207
       6  | 22:16.08 |    3:42.10   |      100208      |     116867
       7  | 25:58.18 |    2:59.10   |      116868      |     130302
       8  | 28:57.28 |    4:04.32   |      130303      |     148634
       9  | 33:01.60 |    4:14.56   |      148635      |     167740
      10  | 37:16.41 |    5:15.43   |      167741      |     191408
      11  | 42:32.09 |    6:14.37   |      191409      |     219495
      12  | 48:46.46 |    3:20.46   |      219496      |     234541
Трек  1
     Имя файла R:\Раздача 53\Sisters Morales - 2008 - Talking To The River\01 Losing Me To No One.wav
     Длина предзазора  0:00:02.00
     Пиковый уровень 96.6 %
     Скорость извлечения 5.7 X
     Качество трека 100.0 %
     CRC теста 0157BAC1
     CRC копии 0157BAC1
     Точное извлечение (достоверность 3)  [4E526578]  (AR v2)
     Копирование... OK
Трек  2
     Имя файла R:\Раздача 53\Sisters Morales - 2008 - Talking To The River\02 Right From The Start.wav
     Пиковый уровень 96.6 %
     Скорость извлечения 6.1 X
     Качество трека 100.0 %
     CRC теста 73483573
     CRC копии 73483573
     Точное извлечение (достоверность 3)  [48374F0A]  (AR v2)
     Копирование... OK
Трек  3
     Имя файла R:\Раздача 53\Sisters Morales - 2008 - Talking To The River\03 World Goes Round.wav
     Пиковый уровень 98.5 %
     Скорость извлечения 5.5 X
     Качество трека 99.9 %
     CRC теста 2CFD7D96
     CRC копии 2CFD7D96
     Точное извлечение (достоверность 3)  [8B75A26E]  (AR v2)
     Копирование... OK
Трек  4
     Имя файла R:\Раздача 53\Sisters Morales - 2008 - Talking To The River\04 Time Off And Peace.wav
     Пиковый уровень 96.6 %
     Скорость извлечения 7.3 X
     Качество трека 100.0 %
     CRC теста ECB1188D
     CRC копии ECB1188D
     Точное извлечение (достоверность 2)  [DBC62C0E]  (AR v2)
     Копирование... OK
Трек  5
     Имя файла R:\Раздача 53\Sisters Morales - 2008 - Talking To The River\05 La Canoera.wav
     Пиковый уровень 100.0 %
     Скорость извлечения 7.6 X
     Качество трека 100.0 %
     CRC теста DE50B2A3
     CRC копии DE50B2A3
     Точное извлечение (достоверность 3)  [37766EBD]  (AR v2)
     Копирование... OK
Трек  6
     Имя файла R:\Раздача 53\Sisters Morales - 2008 - Talking To The River\06 It's Time.wav
     Пиковый уровень 96.6 %
     Скорость извлечения 7.9 X
     Качество трека 100.0 %
     CRC теста 1E133046
     CRC копии 1E133046
     Точное извлечение (достоверность 3)  [25486811]  (AR v2)
     Копирование... OK
Трек  7
     Имя файла R:\Раздача 53\Sisters Morales - 2008 - Talking To The River\07 I Won't Stand Still.wav
     Пиковый уровень 96.6 %
     Скорость извлечения 8.0 X
     Качество трека 100.0 %
     CRC теста 2B6121E5
     CRC копии 2B6121E5
     Точное извлечение (достоверность 3)  [83BC8835]  (AR v2)
     Копирование... OK
Трек  8
     Имя файла R:\Раздача 53\Sisters Morales - 2008 - Talking To The River\08 Say Goodbye.wav
     Пиковый уровень 95.7 %
     Скорость извлечения 8.7 X
     Качество трека 100.0 %
     CRC теста F1B929DF
     CRC копии F1B929DF
     Точное извлечение (достоверность 3)  [73D0B256]  (AR v2)
     Копирование... OK
Трек  9
     Имя файла R:\Раздача 53\Sisters Morales - 2008 - Talking To The River\09 Whatcha Gonna Do About It.wav
     Пиковый уровень 96.6 %
     Скорость извлечения 9.0 X
     Качество трека 100.0 %
     CRC теста AB1D3D61
     CRC копии AB1D3D61
     Точное извлечение (достоверность 3)  [EE4C5820]  (AR v2)
     Копирование... OK
Трек 10
     Имя файла R:\Раздача 53\Sisters Morales - 2008 - Talking To The River\10 La Mucura.wav
     Пиковый уровень 90.2 %
     Скорость извлечения 9.6 X
     Качество трека 100.0 %
     CRC теста 16482F94
     CRC копии 16482F94
     Точное извлечение (достоверность 3)  [45912697]  (AR v2)
     Копирование... OK
Трек 11
     Имя файла R:\Раздача 53\Sisters Morales - 2008 - Talking To The River\11 Talkin To The River.wav
     Пиковый уровень 95.7 %
     Скорость извлечения 8.0 X
     Качество трека 99.9 %
     CRC теста AC6A8962
     CRC копии AC6A8962
     Точное извлечение (достоверность 3)  [C33DFC16]  (AR v2)
     Копирование... OK
Трек 12
     Имя файла R:\Раздача 53\Sisters Morales - 2008 - Talking To The River\12 Where Is Love.wav
     Пиковый уровень 57.6 %
     Скорость извлечения 9.8 X
     Качество трека 100.0 %
     CRC теста 4249F019
     CRC копии 4249F019
     Точное извлечение (достоверность 3)  [36DEC926]  (AR v2)
     Копирование... OK
Все треки извлечены точно
Ошибок не произошло
Конец отчёта
==== Контрольная сумма отчёта A44C2B45DC96A8076179CDB3536B8916B06B886C64C4FA69BB1254C4B3A87584 ====
Код:
REM GENRE Pop
REM DATE 2008
REM DISCID A80C370C
REM COMMENT "ExactAudioCopy v1.0b3"
CATALOG 0766057068720
PERFORMER "Sisters Morales"
TITLE "Talking To The River"
FILE "01 Losing Me To No One.wav" WAVE
  TRACK 01 AUDIO
    TITLE "Losing Me To No One "
    PERFORMER "Sisters Morales"
    ISRC H1iI60813101
    FLAGS DCP
    INDEX 01 00:00:00
FILE "02 Right From The Start.wav" WAVE
  TRACK 02 AUDIO
    TITLE "Right From The Start"
    PERFORMER "Sisters Morales"
    ISRC H1iI60813102
    FLAGS DCP
    INDEX 01 00:00:00
FILE "03 World Goes Round.wav" WAVE
  TRACK 03 AUDIO
    TITLE "World Goes Round"
    PERFORMER "Sisters Morales"
    ISRC H1iI60813103
    FLAGS DCP
    INDEX 01 00:00:00
FILE "04 Time Off And Peace.wav" WAVE
  TRACK 04 AUDIO
    TITLE "Time Off And Peace"
    PERFORMER "Sisters Morales"
    ISRC H1iI60813104
    FLAGS DCP
    INDEX 01 00:00:00
FILE "05 La Canoera.wav" WAVE
  TRACK 05 AUDIO
    TITLE "La Canoera"
    PERFORMER "Sisters Morales"
    ISRC H1iI60813105
    FLAGS DCP
    INDEX 01 00:00:00
FILE "06 It's Time.wav" WAVE
  TRACK 06 AUDIO
    TITLE "It's Time"
    PERFORMER "Sisters Morales"
    ISRC H1iI60813106
    FLAGS DCP
    INDEX 01 00:00:00
FILE "07 I Won't Stand Still.wav" WAVE
  TRACK 07 AUDIO
    TITLE "I Won't Stand Still"
    PERFORMER "Sisters Morales"
    ISRC H1iI60813107
    FLAGS DCP
    INDEX 01 00:00:00
FILE "08 Say Goodbye.wav" WAVE
  TRACK 08 AUDIO
    TITLE "Say Goodbye"
    PERFORMER "Sisters Morales"
    ISRC H1iI60813108
    FLAGS DCP
    INDEX 01 00:00:00
FILE "09 Whatcha Gonna Do About It.wav" WAVE
  TRACK 09 AUDIO
    TITLE "Whatcha Gonna Do About It"
    PERFORMER "Sisters Morales"
    ISRC H1iI60813109
    FLAGS DCP
    INDEX 01 00:00:00
FILE "10 La Mucura.wav" WAVE
  TRACK 10 AUDIO
    TITLE "La Mucura"
    PERFORMER "Sisters Morales"
    ISRC H1iI60813110
    FLAGS DCP
    INDEX 01 00:00:00
FILE "11 Talkin To The River.wav" WAVE
  TRACK 11 AUDIO
    TITLE "Talkin To The River"
    PERFORMER "Sisters Morales"
    ISRC H1iI60813111
    FLAGS DCP
    INDEX 01 00:00:00
FILE "12 Where Is Love.wav" WAVE
  TRACK 12 AUDIO
    TITLE "Where Is Love"
    PERFORMER "Sisters Morales"
    ISRC H1iI60813112
    FLAGS DCP
    INDEX 01 00:00:00
Правила, инструкции, FAQ!!!
Торрент  Добавлен [26 мар 2019, 18:56] Скачать торрент Магнет ссылка
Скачать торрент
[ Размер 14.76 КБ / Просмотров 1 ]

Статус
Проверен 
 
Размер  334.69 МБ
Приватный: Нет (DHT включён)
.torrent скачан  0
 


     Отправить личное сообщение
   
Страница 1 из 1
Показать сообщения за:  Поле сортировки  
Начать новую тему Ответить на тему


Сейчас этот форум просматривают: нет зарегистрированных пользователей и гости: 0


Вы не можете начинать темы
Вы не можете отвечать на сообщения
Вы не можете редактировать свои сообщения
Вы не можете удалять свои сообщения
Вы не можете добавлять вложения

Перейти:  
cron