Начать новую тему Ответить на тему
Статистика раздачи
Размер: 3.04 ГБ | Добавлен: 26 мар 2019, 20:44 | Скачали: 0
Сидеров: 0  [0 байт/сек]    Личеров: 0  [0 байт/сек]
Пред. тема | След. тема 

Автор
Сообщение

СообщениеДобавлено: 26 мар 2019, 20:44 

Ответить с цитатой 

Simple Minds / Themes (25 CD-singles box set)
(March 79 - September 92)
Жанр: Pop/Rock
Год издания: 2008
Издатель (лейбл): Virgin
Аудиокодек: FLAC (*.flac)
Тип рипа: tracks+.cue
Битрейт аудио: lossless
Источник (релизер): сеть
Наличие сканов в содержимом раздачи: да
Скачано из сети.
Издание состоит из пяти томов, в каждом томе по 5 CD-синглов. Подробности здесь: http://www.discogs.com/Simple-Minds-Themes-Volumes-1-5-March-79-September-92/release/1804276.
Тома 1-4 впервые были изданы в 1990 году. В 2008 году коробку дополнил том 5. Заодно были исправлены две ошибки - треки 3-2 и 7-1 были ошибочно альбомными, а не сингловыми. (Обратите внимание на длительность трека 7-1 в этой раздаче. На альбоме он короче).
Для томов 1-3 прилагаются нормальные сканы 1990 года, для 4 и 5 томов - только фотки.
1-01 I Travel 6:15
1-02 Celebrate 5:03
1-03 Film Theme 2:19
Код:
Syrup 0.9.9.47, Track.cfg v.0993
Exact Audio Copy V0.99 prebeta 4 from 23. January 2008
EAC extraction logfile from 18. October 2008, 14:46
Simple Minds / Theme 1 - I Travel
Used drive  : TSSTcorpCDDVDW SH-S202N   Adapter: 0  ID: 0
Read mode               : Secure
Utilize accurate stream : Yes
Defeat audio cache      : Yes
Make use of C2 pointers : No
Read offset correction                      : 6
Overread into Lead-In and Lead-Out          : No
Fill up missing offset samples with silence : Yes
Delete leading and trailing silent blocks   : No
Null samples used in CRC calculations       : Yes
Used interface                              : Native Win32 interface for Win NT & 2000
Gap handling                                : Appended to previous track
Used output format              : User Defined Encoder
Selected bitrate                : 768 kBit/s
Quality                         : High
Add ID3 tag                     : No
Command line compressor         : C:\Documents and Settings\Administrator\Desktop\Syrup099_47.exe Folder\Syrup.exe
Additional command line options : REACT %o %s %d "%a" "%g" "%t" "%n" "%x" "%y" "%m" "%e" "%f" "%b" %r
TOC of the extracted CD
     Track |   Start  |  Length  | Start sector | End sector
    ---------------------------------------------------------
        1  |  0:00.00 |  6:15.00 |         0    |    28124
        2  |  6:15.00 |  5:03.00 |     28125    |    50849
        3  | 11:18.00 |  2:18.70 |     50850    |    61269
Track  1
     Filename C:\DOCUME~1\ADMINI~1\LOCALS~1\Temp\Syrup\Simple Minds - Theme 1 - Volume 1 - March 79 - April 82 - 01 - I Travel.wav
     Pre-gap length  0:00:02.00
     Peak level 100.0 %
     Track quality 100.0 %
     Test CRC FE13BEB3
     Copy CRC FE13BEB3
     Cannot be verified as accurate (confidence 5)  [05FFC09A], AccurateRip returned [82F7724A]
     Copy OK
Track  2
     Filename C:\DOCUME~1\ADMINI~1\LOCALS~1\Temp\Syrup\Simple Minds - Theme 1 - Volume 1 - March 79 - April 82 - 02 - Celebrate.wav
     Pre-gap length  0:00:01.40
     Peak level 100.0 %
     Track quality 100.0 %
     Test CRC 6839F608
     Copy CRC 6839F608
     Cannot be verified as accurate (confidence 5)  [30564AC5], AccurateRip returned [2633BD16]
     Copy OK
Track  3
     Filename C:\DOCUME~1\ADMINI~1\LOCALS~1\Temp\Syrup\Simple Minds - Theme 1 - Volume 1 - March 79 - April 82 - 03 - Film Theme.wav
     Pre-gap length  0:00:01.62
     Peak level 92.2 %
     Track quality 100.0 %
     Test CRC 1F7AA57D
     Copy CRC 1F7AA57D
     Cannot be verified as accurate (confidence 5)  [0ADE7179], AccurateRip returned [77A44D2E]
     Copy OK
No tracks could be verified as accurate
You may have a different pressing from the one(s) in the database
No errors occurred
End of status report
Код:
REM GENRE "New Wave"
REM DATE 1990
REM DISCID 21033003
REM COMMENT "ExactAudioCopy v0.99pb4"
PERFORMER "Simple Minds"
TITLE "Theme 1 - I Travel"
FILE "01 - I Travel.wav" WAVE
  TRACK 01 AUDIO
    TITLE "I Travel"
    PERFORMER "Simple Minds"
    INDEX 01 00:00:00
  TRACK 02 AUDIO
    TITLE "Celebrate"
    PERFORMER "Simple Minds"
    INDEX 00 06:13:35
FILE "02 - Celebrate.wav" WAVE
    INDEX 01 00:00:00
  TRACK 03 AUDIO
    TITLE "Film Theme"
    PERFORMER "Simple Minds"
    INDEX 00 05:01:13
FILE "03 - Film Theme.wav" WAVE
    INDEX 01 00:00:00
2-01 The American 6:58
2-02 League Of Nations 4:58
2-03 Sound In 70 Cities 5:02
Код:
Syrup 0.9.9.47, Track.cfg v.0993
Exact Audio Copy V0.99 prebeta 4 from 23. January 2008
EAC extraction logfile from 18. October 2008, 15:13
Simple Minds / Theme 2 - The American
Used drive  : TSSTcorpCDDVDW SH-S202N   Adapter: 0  ID: 0
Read mode               : Secure
Utilize accurate stream : Yes
Defeat audio cache      : Yes
Make use of C2 pointers : No
Read offset correction                      : 6
Overread into Lead-In and Lead-Out          : No
Fill up missing offset samples with silence : Yes
Delete leading and trailing silent blocks   : No
Null samples used in CRC calculations       : Yes
Used interface                              : Native Win32 interface for Win NT & 2000
Gap handling                                : Appended to previous track
Used output format              : User Defined Encoder
Selected bitrate                : 768 kBit/s
Quality                         : High
Add ID3 tag                     : No
Command line compressor         : C:\Documents and Settings\Administrator\Desktop\Syrup099_47.exe Folder\Syrup.exe
Additional command line options : REACT %o %s %d "%a" "%g" "%t" "%n" "%x" "%y" "%m" "%e" "%f" "%b" %r
TOC of the extracted CD
     Track |   Start  |  Length  | Start sector | End sector
    ---------------------------------------------------------
        1  |  0:00.00 |  6:58.00 |         0    |    31349
        2  |  6:58.00 |  4:58.00 |     31350    |    53699
        3  | 11:56.00 |  5:02.00 |     53700    |    76349
Track  1
     Filename C:\DOCUME~1\ADMINI~1\LOCALS~1\Temp\Syrup\Simple Minds - Themes 2 - Volume 1  March 79 - April 82 - 01 - The American.wav
     Pre-gap length  0:00:02.00
     Peak level 92.5 %
     Track quality 100.0 %
     Test CRC DC163FB9
     Copy CRC DC163FB9
     Cannot be verified as accurate (confidence 4)  [66789EC5], AccurateRip returned [7CC93317]
     Copy OK
Track  2
     Filename C:\DOCUME~1\ADMINI~1\LOCALS~1\Temp\Syrup\Simple Minds - Themes 2 - Volume 1  March 79 - April 82 - 02 - League Of Nations.wav
     Pre-gap length  0:00:02.35
     Peak level 93.3 %
     Track quality 100.0 %
     Test CRC E4A4771A
     Copy CRC E4A4771A
     Cannot be verified as accurate (confidence 4)  [1D6A0EFF], AccurateRip returned [235C3FED]
     Copy OK
Track  3
     Filename C:\DOCUME~1\ADMINI~1\LOCALS~1\Temp\Syrup\Simple Minds - Themes 2 - Volume 1  March 79 - April 82 - 03 - Sound In 70 Cities.wav
     Pre-gap length  0:00:02.37
     Peak level 98.4 %
     Track quality 100.0 %
     Test CRC 0BADCD38
     Copy CRC 0BADCD38
     Cannot be verified as accurate (confidence 4)  [771CDE28], AccurateRip returned [7A294F8A]
     Copy OK
No tracks could be verified as accurate
You may have a different pressing from the one(s) in the database
No errors occurred
End of status report
Код:
REM DISCNUMBER 1
REM TOTALDISCS 1
REM GENRE "New Wave"
REM DATE 1990
REM DISCID 1803FA03
REM COMMENT "ExactAudioCopy v0.99pb4"
PERFORMER "Simple Minds"
TITLE "Theme 2 - The American"
FILE "01 - The American.wav" WAVE
  TRACK 01 AUDIO
    TITLE "The American"
    PERFORMER "Simple Minds"
    INDEX 01 00:00:00
  TRACK 02 AUDIO
    TITLE "League Of Nations"
    PERFORMER "Simple Minds"
    INDEX 00 06:55:40
FILE "02 - League Of Nations.wav" WAVE
    INDEX 01 00:00:00
  TRACK 03 AUDIO
    TITLE "Sound In 70 Cities"
    PERFORMER "Simple Minds"
    INDEX 00 04:55:38
FILE "03 - Sound In 70 Cities.wav" WAVE
    INDEX 01 00:00:00
3-01 Love Song 5:05
3-02 This Earth That You Walk Upon 5:27
3-03 Life In A Day 4:08
Код:
Syrup 0.9.9.47, Track.cfg v.0993
Exact Audio Copy V0.99 prebeta 4 from 23. January 2008
EAC extraction logfile from 18. October 2008, 20:55
Simple Minds / Themes 3 - Theme 3 -  Love Song
Used drive  : TSSTcorpCDDVDW SH-S202N   Adapter: 0  ID: 0
Read mode               : Secure
Utilize accurate stream : Yes
Defeat audio cache      : Yes
Make use of C2 pointers : No
Read offset correction                      : 6
Overread into Lead-In and Lead-Out          : No
Fill up missing offset samples with silence : Yes
Delete leading and trailing silent blocks   : No
Null samples used in CRC calculations       : Yes
Used interface                              : Native Win32 interface for Win NT & 2000
Gap handling                                : Appended to previous track
Used output format              : User Defined Encoder
Selected bitrate                : 768 kBit/s
Quality                         : High
Add ID3 tag                     : No
Command line compressor         : C:\Documents and Settings\Administrator\Desktop\Syrup099_47.exe Folder\Syrup.exe
Additional command line options : REACT %o %s %d "%a" "%g" "%t" "%n" "%x" "%y" "%m" "%e" "%f" "%b" %r
TOC of the extracted CD
     Track |   Start  |  Length  | Start sector | End sector
    ---------------------------------------------------------
        1  |  0:00.00 |  5:04.23 |         0    |    22822
        2  |  5:04.23 |  5:26.52 |     22823    |    47324
        3  | 10:31.00 |  4:07.10 |     47325    |    65859
Track  1
     Filename C:\DOCUME~1\ADMINI~1\LOCALS~1\Temp\Syrup\Simple Minds - Themes 3  -  Volume 1 - March 79 - April 82 - 01 - Love Song (Extended Version).wav
     Pre-gap length  0:00:02.00
     Peak level 98.1 %
     Track quality 100.0 %
     Test CRC 7B12861C
     Copy CRC 7B12861C
     Track not present in AccurateRip database
     Copy OK
Track  2
     Filename C:\DOCUME~1\ADMINI~1\LOCALS~1\Temp\Syrup\Simple Minds - Themes 3  -  Volume 1 - March 79 - April 82 - 02 - This Earth That You Walk Upon.wav
     Pre-gap length  0:00:00.23
     Peak level 63.3 %
     Track quality 100.0 %
     Test CRC 05D87D8D
     Copy CRC 05D87D8D
     Track not present in AccurateRip database
     Copy OK
Track  3
     Filename C:\DOCUME~1\ADMINI~1\LOCALS~1\Temp\Syrup\Simple Minds - Themes 3  -  Volume 1 - March 79 - April 82 - 03 - Life In A Day.wav
     Pre-gap length  0:00:01.05
     Peak level 100.0 %
     Track quality 100.0 %
     Test CRC 148FAE10
     Copy CRC 148FAE10
     Track not present in AccurateRip database
     Copy OK
None of the tracks are present in the AccurateRip database
No errors occurred
End of status report
Код:
REM GENRE "New Wave"
REM DATE 1990
REM DISCID 17036E03
REM COMMENT "ExactAudioCopy v0.99pb4"
PERFORMER "Simple Minds"
TITLE "Themes 3 - Love Song"
FILE "01 - Love Song (Extended Version).wav" WAVE
  TRACK 01 AUDIO
    TITLE "Love Song (Extended Version)"
    PERFORMER "Simple Minds"
    INDEX 01 00:00:00
  TRACK 02 AUDIO
    TITLE "This Earth That You Walk Upon"
    PERFORMER "Simple Minds"
    INDEX 00 05:04:00
FILE "02 - This Earth That You Walk Upon.wav" WAVE
    INDEX 01 00:00:00
  TRACK 03 AUDIO
    TITLE "Life In A Day"
    PERFORMER "Simple Minds"
    INDEX 00 05:25:47
FILE "03 - Life In A Day.wav" WAVE
    INDEX 01 00:00:00
4-01 Sweat In Bullet 7:23
4-02 20th Century Promised Land 4:51
4-03 League Of Nation 6:15
4-04 In Trance As Mission 7:19
Код:
Syrup 0.9.9.47, Track.cfg v.0993
Exact Audio Copy V0.99 prebeta 4 from 23. January 2008
EAC extraction logfile from 18. October 2008, 21:20
Simple Minds / Theme 4 - Sweat in Bullet
Used drive  : TSSTcorpCDDVDW SH-S202N   Adapter: 0  ID: 0
Read mode               : Secure
Utilize accurate stream : Yes
Defeat audio cache      : Yes
Make use of C2 pointers : No
Read offset correction                      : 6
Overread into Lead-In and Lead-Out          : No
Fill up missing offset samples with silence : Yes
Delete leading and trailing silent blocks   : No
Null samples used in CRC calculations       : Yes
Used interface                              : Native Win32 interface for Win NT & 2000
Gap handling                                : Appended to previous track
Used output format              : User Defined Encoder
Selected bitrate                : 768 kBit/s
Quality                         : High
Add ID3 tag                     : No
Command line compressor         : C:\Documents and Settings\Administrator\Desktop\Syrup099_47.exe Folder\Syrup.exe
Additional command line options : REACT %o %s %d "%a" "%g" "%t" "%n" "%x" "%y" "%m" "%e" "%f" "%b" %r
TOC of the extracted CD
     Track |   Start  |  Length  | Start sector | End sector
    ---------------------------------------------------------
        1  |  0:00.00 |  7:23.00 |         0    |    33224
        2  |  7:23.00 |  4:51.00 |     33225    |    55049
        3  | 12:14.00 |  6:14.35 |     55050    |    83134
        4  | 18:28.35 |  7:18.48 |     83135    |   116032
Track  1
     Filename C:\DOCUME~1\ADMINI~1\LOCALS~1\Temp\Syrup\Simple Minds - Themes 4 - Volume 1  March 79 - April 82 - 01 - Sweat In Bullet.wav
     Pre-gap length  0:00:02.00
     Peak level 97.9 %
     Track quality 100.0 %
     Test CRC 6C605602
     Copy CRC 6C605602
     Track not present in AccurateRip database
     Copy OK
Track  2
     Filename C:\DOCUME~1\ADMINI~1\LOCALS~1\Temp\Syrup\Simple Minds - Themes 4 - Volume 1  March 79 - April 82 - 02 - 20th Century Promised Land.wav
     Pre-gap length  0:00:00.50
     Peak level 90.1 %
     Track quality 100.0 %
     Test CRC C8EF015E
     Copy CRC C8EF015E
     Track not present in AccurateRip database
     Copy OK
Track  3
     Filename C:\DOCUME~1\ADMINI~1\LOCALS~1\Temp\Syrup\Simple Minds - Themes 4 - Volume 1  March 79 - April 82 - 03 - League Of Nations.wav
     Pre-gap length  0:00:01.05
     Peak level 91.7 %
     Track quality 100.0 %
     Test CRC 11ABDE99
     Copy CRC 11ABDE99
     Track not present in AccurateRip database
     Copy OK
Track  4
     Filename C:\DOCUME~1\ADMINI~1\LOCALS~1\Temp\Syrup\Simple Minds - Themes 4 - Volume 1  March 79 - April 82 - 04 - In Trance As Mission.wav
     Pre-gap length  0:00:00.02
     Peak level 98.6 %
     Track quality 100.0 %
     Test CRC A28E1A5B
     Copy CRC A28E1A5B
     Track not present in AccurateRip database
     Copy OK
None of the tracks are present in the AccurateRip database
No errors occurred
End of status report
Код:
REM DISCNUMBER 1
REM TOTALDISCS 1
REM GENRE "New Wave"
REM DATE 1990
REM DISCID 22060B04
REM COMMENT "ExactAudioCopy v0.99pb4"
PERFORMER "Simple Minds"
TITLE "Theme 4 - Sweat in Bullet"
FILE "01 - Sweat In Bullet.wav" WAVE
  TRACK 01 AUDIO
    TITLE "Sweat In Bullet"
    PERFORMER "Simple Minds"
    INDEX 01 00:00:00
  TRACK 02 AUDIO
    TITLE "20th Century Promised Land"
    PERFORMER "Simple Minds"
    INDEX 00 07:22:25
FILE "02 - 20th Century Promised Land.wav" WAVE
    INDEX 01 00:00:00
  TRACK 03 AUDIO
    TITLE "League Of Nations"
    PERFORMER "Simple Minds"
    INDEX 00 04:49:70
FILE "03 - League Of Nations.wav" WAVE
    INDEX 01 00:00:00
  TRACK 04 AUDIO
    TITLE "In Trance As Mission"
    PERFORMER "Simple Minds"
    INDEX 00 06:14:33
FILE "04 - In Trance As Mission.wav" WAVE
    INDEX 01 00:00:00
5-01 Promised You A Miracle 4:54
5-02 Theme For Great Cities 5:54
5-03 Seeing Out The Angel 6:32
Код:
Syrup 0.9.9.47, Track.cfg v.0993
Exact Audio Copy V0.99 prebeta 4 from 23. January 2008
EAC extraction logfile from 18. October 2008, 21:42
Simple Minds / Theme 5 - Promised You a Miracle
Used drive  : TSSTcorpCDDVDW SH-S202N   Adapter: 0  ID: 0
Read mode               : Secure
Utilize accurate stream : Yes
Defeat audio cache      : Yes
Make use of C2 pointers : No
Read offset correction                      : 6
Overread into Lead-In and Lead-Out          : No
Fill up missing offset samples with silence : Yes
Delete leading and trailing silent blocks   : No
Null samples used in CRC calculations       : Yes
Used interface                              : Native Win32 interface for Win NT & 2000
Gap handling                                : Appended to previous track
Used output format              : User Defined Encoder
Selected bitrate                : 768 kBit/s
Quality                         : High
Add ID3 tag                     : No
Command line compressor         : C:\Documents and Settings\Administrator\Desktop\Syrup099_47.exe Folder\Syrup.exe
Additional command line options : REACT %o %s %d "%a" "%g" "%t" "%n" "%x" "%y" "%m" "%e" "%f" "%b" %r
TOC of the extracted CD
     Track |   Start  |  Length  | Start sector | End sector
    ---------------------------------------------------------
        1  |  0:00.00 |  4:54.00 |         0    |    22049
        2  |  4:54.00 |  5:54.00 |     22050    |    48599
        3  | 10:48.00 |  6:31.08 |     48600    |    77932
Track  1
     Filename C:\DOCUME~1\ADMINI~1\LOCALS~1\Temp\Syrup\Simple Minds - Themes 5  -  Volume 1  March 79 - April 82 - 01 - Promised You A Miracle.wav
     Pre-gap length  0:00:02.00
     Peak level 95.1 %
     Track quality 100.0 %
     Test CRC 92D0C3BE
     Copy CRC 92D0C3BE
     Track not present in AccurateRip database
     Copy OK
Track  2
     Filename C:\DOCUME~1\ADMINI~1\LOCALS~1\Temp\Syrup\Simple Minds - Themes 5  -  Volume 1  March 79 - April 82 - 02 - Theme For Great Cities.wav
     Pre-gap length  0:00:02.12
     Peak level 94.3 %
     Track quality 99.9 %
     Test CRC C70E86A3
     Copy CRC C70E86A3
     Track not present in AccurateRip database
     Copy OK
Track  3
     Filename C:\DOCUME~1\ADMINI~1\LOCALS~1\Temp\Syrup\Simple Minds - Themes 5  -  Volume 1  March 79 - April 82 - 03 - Seeing Out The Angel.wav
     Pre-gap length  0:00:03.30
     Peak level 93.6 %
     Track quality 100.0 %
     Test CRC FADFB229
     Copy CRC FADFB229
     Track not present in AccurateRip database
     Copy OK
None of the tracks are present in the AccurateRip database
No errors occurred
End of status report
Код:
REM DISCNUMBER 1
REM TOTALDISCS 1
REM GENRE "New Wave"
REM DATE 1990
REM DISCID 1E040F03
REM COMMENT "ExactAudioCopy v0.99pb4"
PERFORMER "Simple Minds"
TITLE "Theme 5 - Promised You a Miracle"
FILE "01 - Promised You A Miracle.wav" WAVE
  TRACK 01 AUDIO
    TITLE "Promised You A Miracle"
    PERFORMER "Simple Minds"
    INDEX 01 00:00:00
  TRACK 02 AUDIO
    TITLE "Theme For Great Cities"
    PERFORMER "Simple Minds"
    INDEX 00 04:51:63
FILE "02 - Theme For Great Cities.wav" WAVE
    INDEX 01 00:00:00
  TRACK 03 AUDIO
    TITLE "Seeing Out The Angel"
    PERFORMER "Simple Minds"
    INDEX 00 05:50:45
FILE "03 - Seeing Out The Angel.wav" WAVE
    INDEX 01 00:00:00
6-01 Glittering Prize (Club Mix) 4:58
6-02 New Gold Dream (81.82.83.84) (German 12" Remix) 6:52
6-03 Glittering Prize (Theme) 4:54
Код:
Exact Audio Copy V0.99 prebeta 4 from 23. January 2008
EAC extraction logfile from 19. October 2008, 5:08
Simple Minds / Theme 6 - Glittering Prize
Used drive  : TSSTcorpCDDVDW SH-S202N   Adapter: 0  ID: 0
Read mode               : Secure
Utilize accurate stream : Yes
Defeat audio cache      : Yes
Make use of C2 pointers : No
Read offset correction                      : 6
Overread into Lead-In and Lead-Out          : No
Fill up missing offset samples with silence : Yes
Delete leading and trailing silent blocks   : No
Null samples used in CRC calculations       : Yes
Used interface                              : Native Win32 interface for Win NT & 2000
Gap handling                                : Appended to previous track
Used output format              : User Defined Encoder
Selected bitrate                : 768 kBit/s
Quality                         : High
Add ID3 tag                     : No
Command line compressor         : C:\Documents and Settings\Administrator\Desktop\Syrup099_47.exe Folder\Syrup.exe
Additional command line options : REACT %o %s %d "%a" "%g" "%t" "%n" "%x" "%y" "%m" "%e" "%f" "%b" %r
TOC of the extracted CD
     Track |   Start  |  Length  | Start sector | End sector
    ---------------------------------------------------------
        1  |  0:00.00 |  4:58.00 |         0    |    22349
        2  |  4:58.00 |  6:52.00 |     22350    |    53249
        3  | 11:50.00 |  4:53.63 |     53250    |    75287
Track  1
     Filename C:\DOCUME~1\ADMINI~1\LOCALS~1\Temp\Syrup\Simple Minds - Themes 6 - Volume 2 - August 82 - April 85 - 01 - Glittering Prize (Club Mix).wav
     Pre-gap length  0:00:02.00
     Peak level 100.0 %
     Track quality 100.0 %
     Test CRC 5FA6E6A3
     Copy CRC 5FA6E6A3
     Track not present in AccurateRip database
     Copy OK
Track  2
     Filename C:\DOCUME~1\ADMINI~1\LOCALS~1\Temp\Syrup\Simple Minds - Themes 6 - Volume 2 - August 82 - April 85 - 02 - New Gold Dream (81.82.83.84) (German 12' Remix).wav
     Pre-gap length  0:00:01.62
     Peak level 100.0 %
     Track quality 100.0 %
     Test CRC 66EFD11F
     Copy CRC 66EFD11F
     Track not present in AccurateRip database
     Copy OK
Track  3
     Filename C:\DOCUME~1\ADMINI~1\LOCALS~1\Temp\Syrup\Simple Minds - Themes 6 - Volume 2 - August 82 - April 85 - 03 - Glittering Prize (Theme).wav
     Pre-gap length  0:00:02.57
     Peak level 95.5 %
     Track quality 100.0 %
     Test CRC 8BCFAC91
     Copy CRC 8BCFAC91
     Track not present in AccurateRip database
     Copy OK
None of the tracks are present in the AccurateRip database
No errors occurred
End of status report
Код:
REM GENRE Rock
REM DATE 1990
REM DISCID 0F03EB03
REM COMMENT "ExactAudioCopy v0.99pb4"
PERFORMER "Simple Minds"
TITLE "Theme 6 - Glittering Prize"
FILE "01 - Glittering Prize (Club Mix).wav" WAVE
  TRACK 01 AUDIO
    TITLE "Glittering Prize (Club Mix)"
    PERFORMER "Simple Minds"
    INDEX 01 00:00:00
  TRACK 02 AUDIO
    TITLE "New Gold Dream (81.82.83.84) (German 12' Remix)"
    PERFORMER "Simple Minds"
    INDEX 00 04:56:13
FILE "02 - New Gold Dream (81.82.83.84) (German 12' Remix).wav" WAVE
    INDEX 01 00:00:00
  TRACK 03 AUDIO
    TITLE "Glittering Prize (Theme)"
    PERFORMER "Simple Minds"
    INDEX 00 06:49:18
FILE "03 - Glittering Prize (Theme).wav" WAVE
    INDEX 01 00:00:00
7-01 Someone Somewhere (In Summertime) 6:07
7-02 King Is White And In The Crowd 5:20
7-03 Soundtrack For Every Heaven 4:56
Код:
Syrup 0.9.9.47, Track.cfg v.0993
Exact Audio Copy V0.99 prebeta 4 from 23. January 2008
EAC extraction logfile from 19. October 2008, 1:00
Simple Minds / Theme 7 - Someone Somewhere (In Summertime)
Used drive  : TSSTcorpCDDVDW SH-S202N   Adapter: 0  ID: 0
Read mode               : Secure
Utilize accurate stream : Yes
Defeat audio cache      : Yes
Make use of C2 pointers : No
Read offset correction                      : 6
Overread into Lead-In and Lead-Out          : No
Fill up missing offset samples with silence : Yes
Delete leading and trailing silent blocks   : No
Null samples used in CRC calculations       : Yes
Used interface                              : Native Win32 interface for Win NT & 2000
Gap handling                                : Appended to previous track
Used output format              : User Defined Encoder
Selected bitrate                : 768 kBit/s
Quality                         : High
Add ID3 tag                     : No
Command line compressor         : C:\Documents and Settings\Administrator\Desktop\Syrup099_47.exe Folder\Syrup.exe
Additional command line options : REACT %o %s %d "%a" "%g" "%t" "%n" "%x" "%y" "%m" "%e" "%f" "%b" %r
TOC of the extracted CD
     Track |   Start  |  Length  | Start sector | End sector
    ---------------------------------------------------------
        1  |  0:00.00 |  6:07.00 |         0    |    27524
        2  |  6:07.00 |  5:18.73 |     27525    |    51447
        3  | 11:25.73 |  4:55.70 |     51448    |    73642
Track  1
     Filename C:\DOCUME~1\ADMINI~1\LOCALS~1\Temp\Syrup\Simple Minds - Vol 2 - Theme 7 - Someone Somewhere (In Summertime) - 01 - Someone Somewhere (In Summertime).wav
     Pre-gap length  0:00:02.00
     Peak level 98.2 %
     Track quality 100.0 %
     Test CRC 8982216E
     Copy CRC 8982216E
     Track not present in AccurateRip database
     Copy OK
Track  2
     Filename C:\DOCUME~1\ADMINI~1\LOCALS~1\Temp\Syrup\Simple Minds - Vol 2 - Theme 7 - Someone Somewhere (In Summertime) - 02 - King Is White An In The Crowd.wav
     Pre-gap length  0:00:01.45
     Peak level 75.2 %
     Track quality 100.0 %
     Test CRC 5A71FF39
     Copy CRC 5A71FF39
     Track not present in AccurateRip database
     Copy OK
Track  3
     Filename C:\DOCUME~1\ADMINI~1\LOCALS~1\Temp\Syrup\Simple Minds - Vol 2 - Theme 7 - Someone Somewhere (In Summertime) - 03 - Soundtrack For Every Heaven.wav
     Pre-gap length  0:00:04.05
     Peak level 97.7 %
     Track quality 100.0 %
     Test CRC F0B9EEDF
     Copy CRC F0B9EEDF
     Track not present in AccurateRip database
     Copy OK
None of the tracks are present in the AccurateRip database
No errors occurred
End of status report
Код:
REM GENRE Rock
REM DISCID 2903D503
REM COMMENT "ExactAudioCopy v0.99pb4"
PERFORMER "Simple Minds"
TITLE "Theme 7 - Someone Somewhere (In Summertime)"
FILE "01 - Someone Somewhere (In Summertime).wav" WAVE
  TRACK 01 AUDIO
    TITLE "Someone Somewhere (In Summertime)"
    PERFORMER "Simple Minds"
    INDEX 01 00:00:00
  TRACK 02 AUDIO
    TITLE "King Is White An In The Crowd"
    PERFORMER "Simple Minds"
    INDEX 00 06:05:30
FILE "02 - King Is White An In The Crowd.wav" WAVE
    INDEX 01 00:00:00
  TRACK 03 AUDIO
    TITLE "Soundtrack For Every Heaven"
    PERFORMER "Simple Minds"
    INDEX 00 05:14:68
FILE "03 - Soundtrack For Every Heaven.wav" WAVE
    INDEX 01 00:00:00
8-01 Waterfront 5:53
8-02 Hunter And The Hunted 5:59
8-03 C Moon Cry Like A Baby 4:21
Код:
Exact Audio Copy V0.99 prebeta 4 from 23. January 2008
EAC extraction logfile from 19. October 2008, 12:16
Simple Minds / Theme 8 - Waterfront
Used drive  : TSSTcorpCDDVDW SH-S202N   Adapter: 0  ID: 0
Read mode               : Secure
Utilize accurate stream : Yes
Defeat audio cache      : Yes
Make use of C2 pointers : No
Read offset correction                      : 6
Overread into Lead-In and Lead-Out          : No
Fill up missing offset samples with silence : Yes
Delete leading and trailing silent blocks   : No
Null samples used in CRC calculations       : Yes
Used interface                              : Native Win32 interface for Win NT & 2000
Gap handling                                : Appended to previous track
Used output format              : User Defined Encoder
Selected bitrate                : 768 kBit/s
Quality                         : High
Add ID3 tag                     : No
Command line compressor         : C:\Documents and Settings\Administrator\Desktop\Syrup099_47.exe Folder\Syrup.exe
Additional command line options : REACT %o %s %d "%a" "%g" "%t" "%n" "%x" "%y" "%m" "%e" "%f" "%b" %r
TOC of the extracted CD
     Track |   Start  |  Length  | Start sector | End sector
    ---------------------------------------------------------
        1  |  0:00.00 |  5:53.00 |         0    |    26474
        2  |  5:53.00 |  5:58.73 |     26475    |    53397
        3  | 11:51.73 |  4:20.17 |     53398    |    72914
Track  1
     Filename C:\DOCUME~1\ADMINI~1\LOCALS~1\Temp\Syrup\Simple Minds - Themes 8 - volume 2 - august 82 - april 85 - 01 - Waterfront.wav
     Pre-gap length  0:00:02.00
     Peak level 97.4 %
     Track quality 99.9 %
     Test CRC A190909F
     Copy CRC A190909F
     Track not present in AccurateRip database
     Copy OK
Track  2
     Filename C:\DOCUME~1\ADMINI~1\LOCALS~1\Temp\Syrup\Simple Minds - Themes 8 - volume 2 - august 82 - april 85 - 02 - Hunter And The Hunted.wav
     Pre-gap length  0:00:02.52
     Peak level 97.8 %
     Track quality 99.9 %
     Test CRC A91D6B0B
     Copy CRC A91D6B0B
     Track not present in AccurateRip database
     Copy OK
Track  3
     Filename C:\DOCUME~1\ADMINI~1\LOCALS~1\Temp\Syrup\Simple Minds - Themes 8 - volume 2 - august 82 - april 85 - 03 - C Moon Cry Like A Baby.wav
     Pre-gap length  0:00:02.25
     Peak level 95.4 %
     Track quality 100.0 %
     Test CRC A7045BDB
     Copy CRC A7045BDB
     Track not present in AccurateRip database
     Copy OK
None of the tracks are present in the AccurateRip database
No errors occurred
End of status report
Код:
REM GENRE Rock
REM DATE 1990
REM DISCID 1A03CC03
REM COMMENT "ExactAudioCopy v0.99pb4"
PERFORMER "Simple Minds"
TITLE "Theme 8 - Waterfront"
FILE "01 - Waterfront.wav" WAVE
  TRACK 01 AUDIO
    TITLE "Waterfront"
    PERFORMER "Simple Minds"
    INDEX 01 00:00:00
  TRACK 02 AUDIO
    TITLE "Hunter And The Hunted"
    PERFORMER "Simple Minds"
    INDEX 00 05:50:23
FILE "02 - Hunter And The Hunted.wav" WAVE
    INDEX 01 00:00:00
  TRACK 03 AUDIO
    TITLE "C Moon Cry Like A Baby"
    PERFORMER "Simple Minds"
    INDEX 00 05:56:48
FILE "03 - C Moon Cry Like A Baby.wav" WAVE
    INDEX 01 00:00:00
9-01 Speed Your Love To Me (Extended Mix) 7:24
9-02 Speed Your Love To Me 4:06
9-03 Bass Line 4:4
Код:
Syrup 0.9.9.47, Track.cfg v.0993
Exact Audio Copy V0.99 prebeta 4 from 23. January 2008
EAC extraction logfile from 19. October 2008, 12:33
Simple Minds / Theme 9 - Speed Your Love To Me
Used drive  : TSSTcorpCDDVDW SH-S202N   Adapter: 0  ID: 0
Read mode               : Secure
Utilize accurate stream : Yes
Defeat audio cache      : Yes
Make use of C2 pointers : No
Read offset correction                      : 6
Overread into Lead-In and Lead-Out          : No
Fill up missing offset samples with silence : Yes
Delete leading and trailing silent blocks   : No
Null samples used in CRC calculations       : Yes
Used interface                              : Native Win32 interface for Win NT & 2000
Gap handling                                : Appended to previous track
Used output format              : User Defined Encoder
Selected bitrate                : 768 kBit/s
Quality                         : High
Add ID3 tag                     : No
Command line compressor         : C:\Documents and Settings\Administrator\Desktop\Syrup099_47.exe Folder\Syrup.exe
Additional command line options : REACT %o %s %d "%a" "%g" "%t" "%n" "%x" "%y" "%m" "%e" "%f" "%b" %r
TOC of the extracted CD
     Track |   Start  |  Length  | Start sector | End sector
    ---------------------------------------------------------
        1  |  0:00.00 |  7:24.00 |         0    |    33299
        2  |  7:24.00 |  4:06.00 |     33300    |    51749
        3  | 11:30.00 |  4:41.05 |     51750    |    72829
Track  1
     Filename C:\DOCUME~1\ADMINI~1\LOCALS~1\Temp\Syrup\Simple Minds - Themes 9 - volume 2 - august 82 - april 85 - 01 - Speed Your Love to Me (extended mix).wav
     Pre-gap length  0:00:02.00
     Peak level 100.0 %
     Track quality 100.0 %
     Test CRC B6678FCF
     Copy CRC B6678FCF
     Cannot be verified as accurate (confidence 4)  [1BA1FBEE], AccurateRip returned [1F3D0E54]
     Copy OK
Track  2
     Filename C:\DOCUME~1\ADMINI~1\LOCALS~1\Temp\Syrup\Simple Minds - Themes 9 - volume 2 - august 82 - april 85 - 02 - Speed Your Love to Me.wav
     Pre-gap length  0:00:03.25
     Peak level 94.3 %
     Track quality 100.0 %
     Test CRC BC6B9EB8
     Copy CRC BC6B9EB8
     Cannot be verified as accurate (confidence 4)  [F738E446], AccurateRip returned [7299DB9B]
     Copy OK
Track  3
     Filename C:\DOCUME~1\ADMINI~1\LOCALS~1\Temp\Syrup\Simple Minds - Themes 9 - volume 2 - august 82 - april 85 - 03 - Bass Line.wav
     Pre-gap length  0:00:02.45
     Peak level 88.3 %
     Track quality 100.0 %
     Test CRC AA6FC0D3
     Copy CRC AA6FC0D3
     Cannot be verified as accurate (confidence 4)  [CE0E3E5F], AccurateRip returned [E83E0222]
     Copy OK
No tracks could be verified as accurate
You may have a different pressing from the one(s) in the database
No errors occurred
End of status report
Код:
REM GENRE Rock
REM DATE 1990
REM DISCID 2103CB03
REM COMMENT "ExactAudioCopy v0.99pb4"
PERFORMER "Simple Minds"
TITLE "Theme 9 - Speed Your Love To Me"
FILE "01 - Speed Your Love to Me (extended mix).wav" WAVE
  TRACK 01 AUDIO
    TITLE "Speed Your Love to Me (extended mix)"
    PERFORMER "Simple Minds"
    INDEX 01 00:00:00
  TRACK 02 AUDIO
    TITLE "Speed Your Love to Me"
    PERFORMER "Simple Minds"
    INDEX 00 07:20:50
FILE "02 - Speed Your Love to Me.wav" WAVE
    INDEX 01 00:00:00
  TRACK 03 AUDIO
    TITLE "Bass Line"
    PERFORMER "Simple Minds"
    INDEX 00 04:03:30
FILE "03 - Bass Line.wav" WAVE
    INDEX 01 00:00:00
10-01 Don't You (Forget About Me) 6:36
10-02 Up On The Catwalk (Extended Version) 7:36
10-03 A Brass Band In African Chimes 9:24
Код:
Syrup 0.9.9.47, Track.cfg v.0993
Exact Audio Copy V0.99 prebeta 4 from 23. January 2008
EAC extraction logfile from 19. October 2008, 0:30
Simple Minds / Theme 10 - Don't You (Forget About Me)
Used drive  : TSSTcorpCDDVDW SH-S202N   Adapter: 0  ID: 0
Read mode               : Secure
Utilize accurate stream : Yes
Defeat audio cache      : Yes
Make use of C2 pointers : No
Read offset correction                      : 6
Overread into Lead-In and Lead-Out          : No
Fill up missing offset samples with silence : Yes
Delete leading and trailing silent blocks   : No
Null samples used in CRC calculations       : Yes
Used interface                              : Native Win32 interface for Win NT & 2000
Gap handling                                : Appended to previous track
Used output format              : User Defined Encoder
Selected bitrate                : 768 kBit/s
Quality                         : High
Add ID3 tag                     : No
Command line compressor         : C:\Documents and Settings\Administrator\Desktop\Syrup099_47.exe Folder\Syrup.exe
Additional command line options : REACT %o %s %d "%a" "%g" "%t" "%n" "%x" "%y" "%m" "%e" "%f" "%b" %r
TOC of the extracted CD
     Track |   Start  |  Length  | Start sector | End sector
    ---------------------------------------------------------
        1  |  0:00.00 |  6:35.30 |         0    |    29654
        2  |  6:35.30 |  7:36.00 |     29655    |    63854
        3  | 14:11.30 |  9:26.49 |     63855    |   106353
Track  1
     Filename C:\DOCUME~1\ADMINI~1\LOCALS~1\Temp\Syrup\Simple Minds - Themes 10 - volume 2 - august 82 - april 85 - 01 - Don't You (Forget About Me).wav
     Pre-gap length  0:00:02.00
     Peak level 98.1 %
     Track quality 100.0 %
     Test CRC A6E8DC90
     Copy CRC A6E8DC90
     Track not present in AccurateRip database
     Copy OK
Track  2
     Filename C:\DOCUME~1\ADMINI~1\LOCALS~1\Temp\Syrup\Simple Minds - Themes 10 - volume 2 - august 82 - april 85 - 02 - Upon The Catwalk (Extended Version).wav
     Pre-gap length  0:00:01.47
     Peak level 93.3 %
     Track quality 100.0 %
     Test CRC AF3CD522
     Copy CRC AF3CD522
     Track not present in AccurateRip database
     Copy OK
Track  3
     Filename C:\DOCUME~1\ADMINI~1\LOCALS~1\Temp\Syrup\Simple Minds - Themes 10 - volume 2 - august 82 - april 85 - 03 - A Brass Band in African Chimes.wav
     Pre-gap length  0:00:01.55
     Peak level 97.7 %
     Track quality 100.0 %
     Test CRC 8546F935
     Copy CRC 8546F935
     Track not present in AccurateRip database
     Copy OK
None of the tracks are present in the AccurateRip database
No errors occurred
End of status report
Код:
REM GENRE Rock
REM DATE 1990
REM DISCID 25058A03
REM COMMENT "ExactAudioCopy v0.99pb4"
PERFORMER "Simple Minds"
TITLE "Theme 10 - Don't You (Forget About Me)"
FILE "01 - Don't You (Forget About Me).wav" WAVE
  TRACK 01 AUDIO
    TITLE "Don't You (Forget About Me)"
    PERFORMER "Simple Minds"
    INDEX 01 00:00:00
  TRACK 02 AUDIO
    TITLE "Upon The Catwalk (Extended Version)"
    PERFORMER "Simple Minds"
    INDEX 00 06:33:58
FILE "02 - Upon The Catwalk (Extended Version).wav" WAVE
    INDEX 01 00:00:00
  TRACK 03 AUDIO
    TITLE "A Brass Band in African Chimes"
    PERFORMER "Simple Minds"
    INDEX 00 07:34:20
FILE "03 - A Brass Band in African Chimes.wav" WAVE
    INDEX 01 00:00:00
11-01 Alive And Kicking 5:28
11-02 Alive And Kicking (Instrumental) 6:08
11-03 Up On The Catwalk (Live) 5:50
Код:
Syrup 0.9.9.47, Track.cfg v.0993
Exact Audio Copy V0.99 prebeta 4 from 23. January 2008
EAC extraction logfile from 19. October 2008, 1:46
Simple Minds / Theme 11 - Alive And Kicking
Used drive  : TSSTcorpCDDVDW SH-S202N   Adapter: 0  ID: 0
Read mode               : Secure
Utilize accurate stream : Yes
Defeat audio cache      : Yes
Make use of C2 pointers : No
Read offset correction                      : 6
Overread into Lead-In and Lead-Out          : No
Fill up missing offset samples with silence : Yes
Delete leading and trailing silent blocks   : No
Null samples used in CRC calculations       : Yes
Used interface                              : Native Win32 interface for Win NT & 2000
Gap handling                                : Appended to previous track
Used output format              : User Defined Encoder
Selected bitrate                : 768 kBit/s
Quality                         : High
Add ID3 tag                     : No
Command line compressor         : C:\Documents and Settings\Administrator\Desktop\Syrup099_47.exe Folder\Syrup.exe
Additional command line options : REACT %o %s %d "%a" "%g" "%t" "%n" "%x" "%y" "%m" "%e" "%f" "%b" %r
TOC of the extracted CD
     Track |   Start  |  Length  | Start sector | End sector
    ---------------------------------------------------------
        1  |  0:00.00 |  5:28.00 |         0    |    24599
        2  |  5:28.00 |  6:08.00 |     24600    |    52199
        3  | 11:36.00 |  5:49.13 |     52200    |    78387
Track  1
     Filename C:\DOCUME~1\ADMINI~1\LOCALS~1\Temp\Syrup\Simple Minds - Themes 11 - Volume 3 - September 85 - June 87 - 01 - Alive And Kicking.wav
     Pre-gap length  0:00:02.00
     Peak level 95.5 %
     Track quality 100.0 %
     Test CRC 1821E03D
     Copy CRC 1821E03D
     Track not present in AccurateRip database
     Copy OK
Track  2
     Filename C:\DOCUME~1\ADMINI~1\LOCALS~1\Temp\Syrup\Simple Minds - Themes 11 - Volume 3 - September 85 - June 87 - 02 - Alive And Kicking (Intrumental).wav
     Pre-gap length  0:00:02.10
     Peak level 97.7 %
     Track quality 100.0 %
     Test CRC 72F6D722
     Copy CRC 72F6D722
     Track not present in AccurateRip database
     Copy OK
Track  3
     Filename C:\DOCUME~1\ADMINI~1\LOCALS~1\Temp\Syrup\Simple Minds - Themes 11 - Volume 3 - September 85 - June 87 - 03 - Up On The Catwalk (Live).wav
     Pre-gap length  0:00:03.20
     Peak level 99.2 %
     Track quality 100.0 %
     Test CRC 646C1E2C
     Copy CRC 646C1E2C
     Track not present in AccurateRip database
     Copy OK
None of the tracks are present in the AccurateRip database
No errors occurred
End of status report
Код:
REM GENRE "New Wave"
REM DATE 1990
REM DISCID 1F041503
REM COMMENT "ExactAudioCopy v0.99pb4"
PERFORMER "Simple Minds"
TITLE "Theme 11 - Alive And Kicking"
FILE "01 - Alive And Kicking.wav" WAVE
  TRACK 01 AUDIO
    TITLE "Alive And Kicking"
    PERFORMER "Simple Minds"
    INDEX 01 00:00:00
  TRACK 02 AUDIO
    TITLE "Alive And Kicking (Intrumental)"
    PERFORMER "Simple Minds"
    INDEX 00 05:25:65
FILE "02 - Alive And Kicking (Intrumental).wav" WAVE
    INDEX 01 00:00:00
  TRACK 03 AUDIO
    TITLE "Up On The Catwalk (Live)"
    PERFORMER "Simple Minds"
    INDEX 00 06:04:55
FILE "03 - Up On The Catwalk (Live).wav" WAVE
    INDEX 01 00:00:00
12-01 Sanctify Yourself (Extended Mix) 7:15
12-02 Sanctify Yourself (Dub) 6:12
12-03 Love Song (Live) 5:42
12-04 Street Hassle (Live) 7:25
Код:
Syrup 0.9.9.47, Track.cfg v.0993
Exact Audio Copy V0.99 prebeta 4 from 23. January 2008
EAC extraction logfile from 19. October 2008, 2:10
Simple Minds / Theme 12 - Sanctify Yourself
Used drive  : TSSTcorpCDDVDW SH-S202N   Adapter: 0  ID: 0
Read mode               : Secure
Utilize accurate stream : Yes
Defeat audio cache      : Yes
Make use of C2 pointers : No
Read offset correction                      : 6
Overread into Lead-In and Lead-Out          : No
Fill up missing offset samples with silence : Yes
Delete leading and trailing silent blocks   : No
Null samples used in CRC calculations       : Yes
Used interface                              : Native Win32 interface for Win NT & 2000
Gap handling                                : Appended to previous track
Used output format              : User Defined Encoder
Selected bitrate                : 768 kBit/s
Quality                         : High
Add ID3 tag                     : No
Command line compressor         : C:\Documents and Settings\Administrator\Desktop\Syrup099_47.exe Folder\Syrup.exe
Additional command line options : REACT %o %s %d "%a" "%g" "%t" "%n" "%x" "%y" "%m" "%e" "%f" "%b" %r
TOC of the extracted CD
     Track |   Start  |  Length  | Start sector | End sector
    ---------------------------------------------------------
        1  |  0:00.00 |  7:15.00 |         0    |    32624
        2  |  7:15.00 |  6:12.00 |     32625    |    60524
        3  | 13:27.00 |  5:42.00 |     60525    |    86174
        4  | 19:09.00 |  7:24.08 |     86175    |   119482
Track  1
     Filename C:\DOCUME~1\ADMINI~1\LOCALS~1\Temp\Syrup\Simple Minds - Themes 12 - Volume 3 - September 85 - June 87 - 01 - Sanctify Yourself (Extended Mix).wav
     Pre-gap length  0:00:02.00
     Peak level 95.3 %
     Track quality 99.9 %
     Test CRC 627E22AB
     Copy CRC 627E22AB
     Track not present in AccurateRip database
     Copy OK
Track  2
     Filename C:\DOCUME~1\ADMINI~1\LOCALS~1\Temp\Syrup\Simple Minds - Themes 12 - Volume 3 - September 85 - June 87 - 02 - Sanctify Yorself (Dub).wav
     Pre-gap length  0:00:02.67
     Peak level 93.0 %
     Track quality 100.0 %
     Test CRC 943715CC
     Copy CRC 943715CC
     Track not present in AccurateRip database
     Copy OK
Track  3
     Filename C:\DOCUME~1\ADMINI~1\LOCALS~1\Temp\Syrup\Simple Minds - Themes 12 - Volume 3 - September 85 - June 87 - 03 - Love Song (Live).wav
     Pre-gap length  0:00:00.32
     Peak level 91.4 %
     Track quality 100.0 %
     Test CRC ECBF5AEA
     Copy CRC ECBF5AEA
     Track not present in AccurateRip database
     Copy OK
Track  4
     Filename C:\DOCUME~1\ADMINI~1\LOCALS~1\Temp\Syrup\Simple Minds - Themes 12 - Volume 3 - September 85 - June 87 - 04 - Street Hassle (Live).wav
     Pre-gap length  0:00:00.32
     Peak level 86.4 %
     Track quality 100.0 %
     Test CRC 223C55F6
     Copy CRC 223C55F6
     Track not present in AccurateRip database
     Copy OK
None of the tracks are present in the AccurateRip database
No errors occurred
End of status report
Код:
REM GENRE "New Wave"
REM DATE 1990
REM DISCID 29063904
REM COMMENT "ExactAudioCopy v0.99pb4"
PERFORMER "Simple Minds"
TITLE "Theme 12 - Sanctify Yourself"
FILE "01 - Sanctify Yourself (Extended Mix).wav" WAVE
  TRACK 01 AUDIO
    TITLE "Sanctify Yourself (Extended Mix)"
    PERFORMER "Simple Minds"
    INDEX 01 00:00:00
  TRACK 02 AUDIO
    TITLE "Sanctify Yorself (Dub)"
    PERFORMER "Simple Minds"
    INDEX 00 07:12:08
FILE "02 - Sanctify Yorself (Dub).wav" WAVE
    INDEX 01 00:00:00
  TRACK 03 AUDIO
    TITLE "Love Song (Live)"
    PERFORMER "Simple Minds"
    INDEX 00 06:11:43
FILE "03 - Love Song (Live).wav" WAVE
    INDEX 01 00:00:00
  TRACK 04 AUDIO
    TITLE "Street Hassle (Live)"
    PERFORMER "Simple Minds"
    INDEX 00 05:41:43
FILE "04 - Street Hassle (Live).wav" WAVE
    INDEX 01 00:00:00
13-01 All The Things She Said (Extended) 5:14
13-02 Promised You A Miracle (US Remix) 6:04
13-03 Don't You (Forget About Me) 9:04
Код:
Syrup 0.9.9.47, Track.cfg v.0993
Exact Audio Copy V0.99 prebeta 4 from 23. January 2008
EAC extraction logfile from 19. October 2008, 2:53
Simple Minds / Theme 13 - All The Things She Said
Used drive  : TSSTcorpCDDVDW SH-S202N   Adapter: 0  ID: 0
Read mode               : Secure
Utilize accurate stream : Yes
Defeat audio cache      : Yes
Make use of C2 pointers : No
Read offset correction                      : 6
Overread into Lead-In and Lead-Out          : No
Fill up missing offset samples with silence : Yes
Delete leading and trailing silent blocks   : No
Null samples used in CRC calculations       : Yes
Used interface                              : Native Win32 interface for Win NT & 2000
Gap handling                                : Appended to previous track
Used output format              : User Defined Encoder
Selected bitrate                : 768 kBit/s
Quality                         : High
Add ID3 tag                     : No
Command line compressor         : C:\Documents and Settings\Administrator\Desktop\Syrup099_47.exe Folder\Syrup.exe
Additional command line options : REACT %o %s %d "%a" "%g" "%t" "%n" "%x" "%y" "%m" "%e" "%f" "%b" %r
TOC of the extracted CD
     Track |   Start  |  Length  | Start sector | End sector
    ---------------------------------------------------------
        1  |  0:00.00 |  5:14.00 |         0    |    23549
        2  |  5:14.00 |  6:03.72 |     23550    |    50846
        3  | 11:17.72 |  9:03.63 |     50847    |    91634
Track  1
     Filename C:\DOCUME~1\ADMINI~1\LOCALS~1\Temp\Syrup\Simple Minds - Themes 13 - Volume 3 - September 85 - June 87 - 01 - All The Things She Said (Extended).wav
     Pre-gap length  0:00:02.00
     Peak level 100.0 %
     Track quality 100.0 %
     Test CRC BD46A4E0
     Copy CRC BD46A4E0
     Cannot be verified as accurate (confidence 3)  [D6E724F6], AccurateRip returned [D7C2CC59]
     Copy OK
Track  2
     Filename C:\DOCUME~1\ADMINI~1\LOCALS~1\Temp\Syrup\Simple Minds - Themes 13 - Volume 3 - September 85 - June 87 - 02 - Promised You A Miracle (Us Remix).wav
     Pre-gap length  0:00:04.08
     Peak level 81.4 %
     Track quality 100.0 %
     Test CRC BFB61D9B
     Copy CRC BFB61D9B
     Cannot be verified as accurate (confidence 3)  [E2A905FE], AccurateRip returned [FC68F3A6]
     Copy OK
Track  3
     Filename C:\DOCUME~1\ADMINI~1\LOCALS~1\Temp\Syrup\Simple Minds - Themes 13 - Volume 3 - September 85 - June 87 - 03 - Don't You (Forget About Me) (Live).wav
     Pre-gap length  0:00:02.22
     Peak level 73.7 %
     Track quality 100.0 %
     Test CRC CAE483A1
     Copy CRC CAE483A1
     Cannot be verified as accurate (confidence 3)  [0957A614], AccurateRip returned [50776B80]
     Copy OK
No tracks could be verified as accurate
You may have a different pressing from the one(s) in the database
No errors occurred
End of status report
Код:
REM GENRE "New Wave"
REM DATE 1990
REM DISCID 2204C503
REM COMMENT "ExactAudioCopy v0.99pb4"
PERFORMER "Simple Minds"
TITLE "Theme 13 - All The Things She Said"
FILE "01 - All The Things She Said (Extended).wav" WAVE
  TRACK 01 AUDIO
    TITLE "All The Things She Said (Extended)"
    PERFORMER "Simple Minds"
    INDEX 01 00:00:00
  TRACK 02 AUDIO
    TITLE "Promised You A Miracle (Us Remix)"
    PERFORMER "Simple Minds"
    INDEX 00 05:09:67
FILE "02 - Promised You A Miracle (Us Remix).wav" WAVE
    INDEX 01 00:00:00
  TRACK 03 AUDIO
    TITLE "Don't You (Forget About Me) (Live)"
    PERFORMER "Simple Minds"
    INDEX 00 06:01:50
FILE "03 - Don't You (Forget About Me) (Live).wav" WAVE
    INDEX 01 00:00:00
14-01 Ghostdancing (12") 6:59
14-02 Ghostdancing (Instrumental) 4:55
14-03 Oh Jungleland (12") 7:00
14-04 Oh Jungleland (Instrumental) 6:08
Код:
Syrup 0.9.9.47, Track.cfg v.0993
Exact Audio Copy V0.99 prebeta 4 from 23. January 2008
EAC extraction logfile from 19. October 2008, 3:17
Simple Minds / Theme 14 - Ghostdancing
Used drive  : TSSTcorpCDDVDW SH-S202N   Adapter: 0  ID: 0
Read mode               : Secure
Utilize accurate stream : Yes
Defeat audio cache      : Yes
Make use of C2 pointers : No
Read offset correction                      : 6
Overread into Lead-In and Lead-Out          : No
Fill up missing offset samples with silence : Yes
Delete leading and trailing silent blocks   : No
Null samples used in CRC calculations       : Yes
Used interface                              : Native Win32 interface for Win NT & 2000
Gap handling                                : Appended to previous track
Used output format              : User Defined Encoder
Selected bitrate                : 768 kBit/s
Quality                         : High
Add ID3 tag                     : No
Command line compressor         : C:\Documents and Settings\Administrator\Desktop\Syrup099_47.exe Folder\Syrup.exe
Additional command line options : REACT %o %s %d "%a" "%g" "%t" "%n" "%x" "%y" "%m" "%e" "%f" "%b" %r
TOC of the extracted CD
     Track |   Start  |  Length  | Start sector | End sector
    ---------------------------------------------------------
        1  |  0:00.00 |  6:59.00 |         0    |    31424
        2  |  6:59.00 |  4:55.00 |     31425    |    53549
        3  | 11:54.00 |  7:00.00 |     53550    |    85049
        4  | 18:54.00 |  6:08.00 |     85050    |   112649
Track  1
     Filename C:\DOCUME~1\ADMINI~1\LOCALS~1\Temp\Syrup\Simple Minds - Theme 14 - Ghostdancing & Jungleland - 01 - Ghostdancing (Special Extended 12' Remix).wav
     Pre-gap length  0:00:02.00
     Peak level 97.6 %
     Track quality 100.0 %
     Test CRC 05098E71
     Copy CRC 05098E71
     Cannot be verified as accurate (confidence 5)  [E34C1DDC], AccurateRip returned [ADBB00E4]
     Copy OK
Track  2
     Filename C:\DOCUME~1\ADMINI~1\LOCALS~1\Temp\Syrup\Simple Minds - Theme 14 - Ghostdancing & Jungleland - 02 - Ghostdancing (Instrumental).wav
     Pre-gap length  0:00:01.10
     Peak level 97.6 %
     Track quality 100.0 %
     Test CRC D7FF0967
     Copy CRC D7FF0967
     Cannot be verified as accurate (confidence 5)  [F63C182F], AccurateRip returned [A4D9A85B]
     Copy OK
Track  3
     Filename C:\DOCUME~1\ADMINI~1\LOCALS~1\Temp\Syrup\Simple Minds - Theme 14 - Ghostdancing & Jungleland - 03 - Jungleland (Special Extended 12' Remix).wav
     Pre-gap length  0:00:03.10
     Peak level 95.9 %
     Track quality 100.0 %
     Test CRC 97A82BFA
     Copy CRC 97A82BFA
     Cannot be verified as accurate (confidence 5)  [D4719DE6], AccurateRip returned [56621766]
     Copy OK
Track  4
     Filename C:\DOCUME~1\ADMINI~1\LOCALS~1\Temp\Syrup\Simple Minds - Theme 14 - Ghostdancing & Jungleland - 04 - Jungleland (Instrumental).wav
     Pre-gap length  0:00:00.70
     Peak level 100.0 %
     Track quality 100.0 %
     Test CRC 113AEBA6
     Copy CRC 113AEBA6
     Cannot be verified as accurate (confidence 5)  [D7ED9F67], AccurateRip returned [AED405A1]
     Copy OK
No tracks could be verified as accurate
You may have a different pressing from the one(s) in the database
No errors occurred
End of status report
Код:
REM DISCNUMBER 1
REM TOTALDISCS 1
REM GENRE rock
REM DATE 1986
REM DISCID 2205DE04
REM COMMENT "ExactAudioCopy v0.99pb4"
PERFORMER "Simple Minds"
TITLE "Theme 14 - Ghostdancing"
FILE "01 - Ghostdancing (Special Extended 12' Remix).wav" WAVE
  TRACK 01 AUDIO
    TITLE "Ghostdancing (Special Extended 12' Remix)"
    PERFORMER "Simple Minds"
    INDEX 01 00:00:00
  TRACK 02 AUDIO
    TITLE "Ghostdancing (Instrumental)"
    PERFORMER "Simple Minds"
    INDEX 00 06:57:65
FILE "02 - Ghostdancing (Instrumental).wav" WAVE
    INDEX 01 00:00:00
  TRACK 03 AUDIO
    TITLE "Jungleland (Special Extended 12' Remix)"
    PERFORMER "Simple Minds"
    INDEX 00 04:51:65
FILE "03 - Jungleland (Special Extended 12' Remix).wav" WAVE
    INDEX 01 00:00:00
  TRACK 04 AUDIO
    TITLE "Jungleland (Instrumental)"
    PERFORMER "Simple Minds"
    INDEX 00 06:59:05
FILE "04 - Jungleland (Instrumental).wav" WAVE
    INDEX 01 00:00:00
15-01 Promised You A Miracle 4:55
15-02 Book Of Brilliant Things 4:54
15-03 Glittering Prize 4:29
15-04 Celebrate 5:44
Код:
Syrup 0.9.9.47, Track.cfg v.0993
Exact Audio Copy V0.99 prebeta 4 from 23. January 2008
EAC extraction logfile from 19. October 2008, 3:40
Simple Minds / Theme 15 - Promised You A Miracle
Used drive  : TSSTcorpCDDVDW SH-S202N   Adapter: 0  ID: 0
Read mode               : Secure
Utilize accurate stream : Yes
Defeat audio cache      : Yes
Make use of C2 pointers : No
Read offset correction                      : 6
Overread into Lead-In and Lead-Out          : No
Fill up missing offset samples with silence : Yes
Delete leading and trailing silent blocks   : No
Null samples used in CRC calculations       : Yes
Used interface                              : Native Win32 interface for Win NT & 2000
Gap handling                                : Appended to previous track
Used output format              : User Defined Encoder
Selected bitrate                : 768 kBit/s
Quality                         : High
Add ID3 tag                     : No
Command line compressor         : C:\Documents and Settings\Administrator\Desktop\Syrup099_47.exe Folder\Syrup.exe
Additional command line options : REACT %o %s %d "%a" "%g" "%t" "%n" "%x" "%y" "%m" "%e" "%f" "%b" %r
TOC of the extracted CD
     Track |   Start  |  Length  | Start sector | End sector
    ---------------------------------------------------------
        1  |  0:00.00 |  4:54.35 |         0    |    22084
        2  |  4:54.35 |  4:53.40 |     22085    |    44099
        3  |  9:48.00 |  4:28.50 |     44100    |    64249
        4  | 14:16.50 |  5:43.23 |     64250    |    89997
Track  1
     Filename C:\DOCUME~1\ADMINI~1\LOCALS~1\Temp\Syrup\Simple Minds - Themes 15 - Volume 3 - September 85 - June 87 - 01 - Promised You A Miracle.wav
     Pre-gap length  0:00:02.00
     Peak level 100.0 %
     Track quality 100.0 %
     Test CRC 3640743B
     Copy CRC 3640743B
     Track not present in AccurateRip database
     Copy OK
Track  2
     Filename C:\DOCUME~1\ADMINI~1\LOCALS~1\Temp\Syrup\Simple Minds - Themes 15 - Volume 3 - September 85 - June 87 - 02 - Book Of Brilliant Things.wav
     Pre-gap length  0:00:00.47
     Peak level 100.0 %
     Track quality 99.9 %
     Test CRC D432044C
     Copy CRC D432044C
     Track not present in AccurateRip database
     Copy OK
Track  3
     Filename C:\DOCUME~1\ADMINI~1\LOCALS~1\Temp\Syrup\Simple Minds - Themes 15 - Volume 3 - September 85 - June 87 - 03 - Glittering Prize.wav
     Pre-gap length  0:00:01.05
     Peak level 90.9 %
     Track quality 100.0 %
     Test CRC B2DE9D82
     Copy CRC B2DE9D82
     Track not present in AccurateRip database
     Copy OK
Track  4
     Filename C:\DOCUME~1\ADMINI~1\LOCALS~1\Temp\Syrup\Simple Minds - Themes 15 - Volume 3 - September 85 - June 87 - 04 - Celebrate.wav
     Pre-gap length  0:00:02.07
     Peak level 82.9 %
     Track quality 100.0 %
     Test CRC 918E1537
     Copy CRC 918E1537
     Track not present in AccurateRip database
     Copy OK
None of the tracks are present in the AccurateRip database
No errors occurred
End of status report
Код:
REM GENRE "New Wave"
REM DATE 1990
REM DISCID 3604AF04
REM COMMENT "ExactAudioCopy v0.99pb4"
PERFORMER "Simple Minds"
TITLE "Theme 15 - Promised You A Miracle"
FILE "01 - Promised You A Miracle.wav" WAVE
  TRACK 01 AUDIO
    TITLE "Promised You A Miracle"
    PERFORMER "Simple Minds"
    INDEX 01 00:00:00
  TRACK 02 AUDIO
    TITLE "Book Of Brilliant Things"
    PERFORMER "Simple Minds"
    INDEX 00 04:53:63
FILE "02 - Book Of Brilliant Things.wav" WAVE
    INDEX 01 00:00:00
  TRACK 03 AUDIO
    TITLE "Glittering Prize"
    PERFORMER "Simple Minds"
    INDEX 00 04:52:35
FILE "03 - Glittering Prize.wav" WAVE
    INDEX 01 00:00:00
  TRACK 04 AUDIO
    TITLE "Celebrate"
    PERFORMER "Simple Minds"
    INDEX 00 04:26:43
FILE "04 - Celebrate.wav" WAVE
    INDEX 01 00:00:00
16-01 Belfast Child (Full Length Version) 6:42
16-02 Mandela Day 5:44
16-03 Biko 7:33
Код:
Syrup 0.9.9.47, Track.cfg v.0993
Exact Audio Copy V0.99 prebeta 4 from 23. January 2008
EAC extraction logfile from 19. October 2008, 4:23
Simple Minds / Theme 16 - Ballad Of The Streets
Used drive  : TSSTcorpCDDVDW SH-S202N   Adapter: 0  ID: 0
Read mode               : Secure
Utilize accurate stream : Yes
Defeat audio cache      : Yes
Make use of C2 pointers : No
Read offset correction                      : 6
Overread into Lead-In and Lead-Out          : No
Fill up missing offset samples with silence : Yes
Delete leading and trailing silent blocks   : No
Null samples used in CRC calculations       : Yes
Used interface                              : Native Win32 interface for Win NT & 2000
Gap handling                                : Appended to previous track
Used output format              : User Defined Encoder
Selected bitrate                : 768 kBit/s
Quality                         : High
Add ID3 tag                     : No
Command line compressor         : C:\Documents and Settings\Administrator\Desktop\Syrup099_47.exe Folder\Syrup.exe
Additional command line options : REACT %o %s %d "%a" "%g" "%t" "%n" "%x" "%y" "%m" "%e" "%f" "%b" %r
TOC of the extracted CD
     Track |   Start  |  Length  | Start sector | End sector
    ---------------------------------------------------------
        1  |  0:00.00 |  6:42.00 |         0    |    30149
        2  |  6:42.00 |  5:43.05 |     30150    |    55879
        3  | 12:25.05 |  7:32.23 |     55880    |    89802
Track  1
     Filename C:\DOCUME~1\ADMINI~1\LOCALS~1\Temp\Syrup\Simple Minds - Themes - Volume 4; Theme 16 - 20 (February 89 - May 90) (CD 1,5) - 01 - Belfast Child (Full Length Version).wav
     Pre-gap length  0:00:02.00
     Peak level 100.0 %
     Track quality 100.0 %
     Test CRC EC56B1F2
     Copy CRC EC56B1F2
     Track not present in AccurateRip database
     Copy OK
Track  2
     Filename C:\DOCUME~1\ADMINI~1\LOCALS~1\Temp\Syrup\Simple Minds - Themes - Volume 4; Theme 16 - 20 (February 89 - May 90) (CD 1,5) - 02 - Mandela Day.wav
     Pre-gap length  0:00:01.42
     Peak level 99.9 %
     Track quality 100.0 %
     Test CRC 15372D2D
     Copy CRC 15372D2D
     Track not present in AccurateRip database
     Copy OK
Track  3
     Filename C:\DOCUME~1\ADMINI~1\LOCALS~1\Temp\Syrup\Simple Minds - Themes - Volume 4; Theme 16 - 20 (February 89 - May 90) (CD 1,5) - 03 - Biko.wav
     Pre-gap length  0:00:00.37
     Peak level 91.0 %
     Track quality 99.9 %
     Test CRC B267754C
     Copy CRC B267754C
     Track not present in AccurateRip database
     Copy OK
None of the tracks are present in the AccurateRip database
No errors occurred
End of status report
Код:
REM GENRE "Rock / Pop"
REM DATE 1990
REM DISCID 1C04AD03
REM COMMENT "ExactAudioCopy v0.99pb4"
PERFORMER "Simple Minds"
TITLE "Theme 16 - Ballad Of The Streets"
FILE "01 - Belfast Child (Full Length Version).wav" WAVE
  TRACK 01 AUDIO
    TITLE "Belfast Child (Full Length Version)"
    PERFORMER "Simple Minds"
    INDEX 01 00:00:00
  TRACK 02 AUDIO
    TITLE "Mandela Day"
    PERFORMER "Simple Minds"
    INDEX 00 06:40:33
FILE "02 - Mandela Day.wav" WAVE
    INDEX 01 00:00:00
  TRACK 03 AUDIO
    TITLE "Biko"
    PERFORMER "Simple Minds"
    INDEX 00 05:42:43
FILE "03 - Biko.wav" WAVE
    INDEX 01 00:00:00
17-01 This Is Your Land (Full Length Version) 6:22
17-02 Saturday Girl 6:11
17-03 Year Of The Dragon 3:08
Код:
Exact Audio Copy V0.99 prebeta 4 from 23. January 2008
EAC extraction logfile from 19. October 2008, 4:46
Simple Minds / Theme 17 - This Is Your Land
Used drive  : TSSTcorpCDDVDW SH-S202N   Adapter: 0  ID: 0
Read mode               : Secure
Utilize accurate stream : Yes
Defeat audio cache      : Yes
Make use of C2 pointers : No
Read offset correction                      : 6
Overread into Lead-In and Lead-Out          : No
Fill up missing offset samples with silence : Yes
Delete leading and trailing silent blocks   : No
Null samples used in CRC calculations       : Yes
Used interface                              : Native Win32 interface for Win NT & 2000
Gap handling                                : Appended to previous track
Used output format              : User Defined Encoder
Selected bitrate                : 768 kBit/s
Quality                         : High
Add ID3 tag                     : No
Command line compressor         : C:\Documents and Settings\Administrator\Desktop\Syrup099_47.exe Folder\Syrup.exe
Additional command line options : REACT %o %s %d "%a" "%g" "%t" "%n" "%x" "%y" "%m" "%e" "%f" "%b" %r
TOC of the extracted CD
     Track |   Start  |  Length  | Start sector | End sector
    ---------------------------------------------------------
        1  |  0:00.00 |  6:22.00 |         0    |    28649
        2  |  6:22.00 |  6:10.10 |     28650    |    56409
        3  | 12:32.10 |  3:07.10 |     56410    |    70444
Track  1
     Filename C:\DOCUME~1\ADMINI~1\LOCALS~1\Temp\Syrup\Simple Minds - Themes 4 - volume 17 - february 89 - may 90 - 01 - This Is Your Land (full length version).wav
     Pre-gap length  0:00:02.00
     Peak level 97.7 %
     Track quality 100.0 %
     Test CRC 768F3F8F
     Copy CRC 768F3F8F
     Cannot be verified as accurate (confidence 4)  [D63C30DD], AccurateRip returned [F063BAFD]
     Copy OK
Track  2
     Filename C:\DOCUME~1\ADMINI~1\LOCALS~1\Temp\Syrup\Simple Minds - Themes 4 - volume 17 - february 89 - may 90 - 02 - Saturday Girl.wav
     Pre-gap length  0:00:01.47
     Peak level 75.2 %
     Track quality 100.0 %
     Test CRC 1CDAB28C
     Copy CRC 1CDAB28C
     Cannot be verified as accurate (confidence 4)  [10B2FB5E], AccurateRip returned [D261EAA1]
     Copy OK
Track  3
     Filename C:\DOCUME~1\ADMINI~1\LOCALS~1\Temp\Syrup\Simple Minds - Themes 4 - volume 17 - february 89 - may 90 - 03 - Year Of The Dragon.wav
     Pre-gap length  0:00:01.07
     Peak level 57.3 %
     Track quality 100.0 %
     Test CRC EEF7961C
     Copy CRC EEF7961C
     Cannot be verified as accurate (confidence 4)  [075EC9E6], AccurateRip returned [4C5BBBC4]
     Copy OK
No tracks could be verified as accurate
You may have a different pressing from the one(s) in the database
No errors occurred
End of status report
Код:
REM GENRE "New Wave"
REM DATE 1990
REM DISCID 2103AB03
REM COMMENT "ExactAudioCopy v0.99pb4"
PERFORMER "Simple Minds"
TITLE "Theme 17 - This Is Your Land"
FILE "01 - This Is Your Land (full length version).wav" WAVE
  TRACK 01 AUDIO
    TITLE "This Is Your Land (full length version)"
    PERFORMER "Simple Minds"
    INDEX 01 00:00:00
  TRACK 02 AUDIO
    TITLE "Saturday Girl"
    PERFORMER "Simple Minds"
    INDEX 00 06:20:28
FILE "02 - Saturday Girl.wav" WAVE
    INDEX 01 00:00:00
  TRACK 03 AUDIO
    TITLE "Year Of The Dragon"
    PERFORMER "Simple Minds"
    INDEX 00 06:09:03
FILE "03 - Year Of The Dragon.wav" WAVE
    INDEX 01 00:00:00
18-01 Kick It In (LP Version) 6:10
18-02 Waterfront (89 Remix) 5:24
18-03 Big Sleep (Live) 6:39
18-04 Kick It In (Unauthorised Mix) 7:05
Код:
Syrup 0.9.9.47, Track.cfg v.0993
Exact Audio Copy V0.99 prebeta 4 from 23. January 2008
EAC extraction logfile from 19. October 2008, 5:35
Simple Minds / Theme 18 - Kick It In
Used drive  : TSSTcorpCDDVDW SH-S202N   Adapter: 0  ID: 0
Read mode               : Secure
Utilize accurate stream : Yes
Defeat audio cache      : Yes
Make use of C2 pointers : No
Read offset correction                      : 6
Overread into Lead-In and Lead-Out          : No
Fill up missing offset samples with silence : Yes
Delete leading and trailing silent blocks   : No
Null samples used in CRC calculations       : Yes
Used interface                              : Native Win32 interface for Win NT & 2000
Gap handling                                : Appended to previous track
Used output format              : User Defined Encoder
Selected bitrate                : 768 kBit/s
Quality                         : High
Add ID3 tag                     : No
Command line compressor         : C:\Documents and Settings\Administrator\Desktop\Syrup099_47.exe Folder\Syrup.exe
Additional command line options : REACT %o %s %d "%a" "%g" "%t" "%n" "%x" "%y" "%m" "%e" "%f" "%b" %r
TOC of the extracted CD
     Track |   Start  |  Length  | Start sector | End sector
    ---------------------------------------------------------
        1  |  0:00.00 |  6:09.68 |         0    |    27742
        2  |  6:09.68 |  5:24.07 |     27743    |    52049
        3  | 11:34.00 |  6:39.00 |     52050    |    81974
        4  | 18:13.00 |  7:05.00 |     81975    |   113849
Track  1
     Filename C:\DOCUME~1\ADMINI~1\LOCALS~1\Temp\Syrup\Simple Minds - Themes 4 - volume 18 - february 89 - may 90 - 01 - Kick It In (LP Version).wav
     Pre-gap length  0:00:02.00
     Peak level 100.0 %
     Track quality 99.9 %
     Test CRC 199F5CB9
     Copy CRC 199F5CB9
     Track not present in AccurateRip database
     Copy OK
Track  2
     Filename C:\DOCUME~1\ADMINI~1\LOCALS~1\Temp\Syrup\Simple Minds - Themes 4 - volume 18 - february 89 - may 90 - 02 - Waterfront (89 Remix).wav
     Pre-gap length  0:00:01.23
     Peak level 100.0 %
     Track quality 99.9 %
     Test CRC 7DDC3A55
     Copy CRC 7DDC3A55
     Track not present in AccurateRip database
     Copy OK
Track  3
     Filename C:\DOCUME~1\ADMINI~1\LOCALS~1\Temp\Syrup\Simple Minds - Themes 4 - volume 18 - february 89 - may 90 - 03 - Big Sleep (live).wav
     Pre-gap length  0:00:00.70
     Peak level 85.5 %
     Track quality 100.0 %
     Test CRC EE8CF251
     Copy CRC EE8CF251
     Track not present in AccurateRip database
     Copy OK
Track  4
     Filename C:\DOCUME~1\ADMINI~1\LOCALS~1\Temp\Syrup\Simple Minds - Themes 4 - volume 18 - february 89 - may 90 - 04 - Kick It In (unauthorised mix).wav
     Pre-gap length  0:00:01.22
     Peak level 100.0 %
     Track quality 100.0 %
     Test CRC 0C0EE1B1
     Copy CRC 0C0EE1B1
     Track not present in AccurateRip database
     Copy OK
None of the tracks are present in the AccurateRip database
No errors occurred
End of status report
Код:
REM GENRE "New Wave"
REM DATE 1990
REM DISCID 3105EE04
REM COMMENT "ExactAudioCopy v0.99pb4"
PERFORMER "Simple Minds"
TITLE "Theme 18 - Kick It In"
FILE "01 - Kick It In (LP Version).wav" WAVE
  TRACK 01 AUDIO
    TITLE "Kick It In (LP Version)"
    PERFORMER "Simple Minds"
    INDEX 01 00:00:00
  TRACK 02 AUDIO
    TITLE "Waterfront (89 Remix)"
    PERFORMER "Simple Minds"
    INDEX 00 06:08:45
FILE "02 - Waterfront (89 Remix).wav" WAVE
    INDEX 01 00:00:00
  TRACK 03 AUDIO
    TITLE "Big Sleep (live)"
    PERFORMER "Simple Minds"
    INDEX 00 05:23:12
FILE "03 - Big Sleep (live).wav" WAVE
    INDEX 01 00:00:00
  TRACK 04 AUDIO
    TITLE "Kick It In (unauthorised mix)"
    PERFORMER "Simple Minds"
    INDEX 00 06:37:53
FILE "04 - Kick It In (unauthorised mix).wav" WAVE
    INDEX 01 00:00:00
19-01 Sign O' The Times 5:40
19-02 Let It All Come Down 4:54
19-03 Sign O' The Times (C J Mackintosh Mix) 6:15
19-04 Jerusalem 2:59
Код:
Syrup 0.9.9.47, Track.cfg v.0993
Exact Audio Copy V0.99 prebeta 4 from 23. January 2008
EAC extraction logfile from 19. October 2008, 13:06
Simple Minds / Theme 19 - The Amsterdam EP
Used drive  : TSSTcorpCDDVDW SH-S202N   Adapter: 0  ID: 0
Read mode               : Secure
Utilize accurate stream : Yes
Defeat audio cache      : Yes
Make use of C2 pointers : No
Read offset correction                      : 6
Overread into Lead-In and Lead-Out          : No
Fill up missing offset samples with silence : Yes
Delete leading and trailing silent blocks   : No
Null samples used in CRC calculations       : Yes
Used interface                              : Native Win32 interface for Win NT & 2000
Gap handling                                : Appended to previous track
Used output format              : User Defined Encoder
Selected bitrate                : 1024 kBit/s
Quality                         : High
Add ID3 tag                     : No
Command line compressor         : C:\Documents and Settings\Administrator\Desktop\Syrup099_47.exe Folder\Syrup.exe
Additional command line options : REACT %o %s %d "%a" "%g" "%t" "%n" "%x" "%y" "%m" "%e" "%f" "%b" %r
TOC of the extracted CD
     Track |   Start  |  Length  | Start sector | End sector
    ---------------------------------------------------------
        1  |  0:00.00 |  5:39.07 |         0    |    25431
        2  |  5:39.07 |  4:53.08 |     25432    |    47414
        3  | 10:32.15 |  6:14.65 |     47415    |    75529
        4  | 16:47.05 |  2:58.52 |     75530    |    88931
Track  1
     Filename C:\DOCUME~1\ADMINI~1\LOCALS~1\Temp\Syrup\Simple Minds - Themes 4 - volume 19 - february 89 - may 90 - 01 - Sign O' The Times.wav
     Pre-gap length  0:00:02.00
     Peak level 92.0 %
     Track quality 100.0 %
     Test CRC B123A246
     Copy CRC B123A246
     Cannot be verified as accurate (confidence 3)  [A08F0DA4], AccurateRip returned [811F51C7]
     Copy OK
Track  2
     Filename C:\DOCUME~1\ADMINI~1\LOCALS~1\Temp\Syrup\Simple Minds - Themes 4 - volume 19 - february 89 - may 90 - 02 - Let It All Come Down.wav
     Pre-gap length  0:00:01.50
     Peak level 89.0 %
     Track quality 100.0 %
     Test CRC 910C48D3
     Copy CRC 910C48D3
     Cannot be verified as accurate (confidence 3)  [8DDE6AF5], AccurateRip returned [C0F894B2]
     Copy OK
Track  3
     Filename C:\DOCUME~1\ADMINI~1\LOCALS~1\Temp\Syrup\Simple Minds - Themes 4 - volume 19 - february 89 - may 90 - 03 - Sign O' The Times (C J Mackintosh mix).wav
     Pre-gap length  0:00:00.65
     Peak level 99.6 %
     Track quality 100.0 %
     Test CRC 38634032
     Copy CRC 38634032
     Cannot be verified as accurate (confidence 3)  [34AA4290], AccurateRip returned [C61C31C0]
     Copy OK
Track  4
     Filename C:\DOCUME~1\ADMINI~1\LOCALS~1\Temp\Syrup\Simple Minds - Themes 4 - volume 19 - february 89 - may 90 - 04 - Jerusalem.wav
     Pre-gap length  0:00:02.15
     Peak level 86.8 %
     Track quality 100.0 %
     Test CRC B67ED745
     Copy CRC B67ED745
     Cannot be verified as accurate (confidence 3)  [32503985], AccurateRip returned [4CD0B83F]
     Copy OK
No tracks could be verified as accurate
You may have a different pressing from the one(s) in the database
No errors occurred
End of status report
Код:
REM GENRE "New Wave"
REM DATE 1990
REM DISCID 2104A104
REM COMMENT "ExactAudioCopy v0.99pb4"
PERFORMER "Simple Minds"
TITLE "Theme 19 - The Amsterdam EP"
FILE "01 - Sign O' The Times.wav" WAVE
  TRACK 01 AUDIO
    TITLE "Sign O' The Times"
    PERFORMER "Simple Minds"
    INDEX 01 00:00:00
  TRACK 02 AUDIO
    TITLE "Let It All Come Down"
    PERFORMER "Simple Minds"
    INDEX 00 05:37:32
FILE "02 - Let It All Come Down.wav" WAVE
    INDEX 01 00:00:00
  TRACK 03 AUDIO
    TITLE "Sign O' The Times (C J Mackintosh mix)"
    PERFORMER "Simple Minds"
    INDEX 00 04:52:18
FILE "03 - Sign O' The Times (C J Mackintosh mix).wav" WAVE
    INDEX 01 00:00:00
  TRACK 04 AUDIO
    TITLE "Jerusalem"
    PERFORMER "Simple Minds"
    INDEX 00 06:12:50
FILE "04 - Jerusalem.wav" WAVE
    INDEX 01 00:00:00
20-01 Street Fighting Years 10:03
20-02 Mandela Day 8:13
20-03 Kick It In 6:45
Код:
Syrup 0.9.9.47, Track.cfg v.0993
Exact Audio Copy V0.99 prebeta 4 from 23. January 2008
EAC extraction logfile from 19. October 2008, 13:35
Simple Minds / Theme 20 - Verona
Used drive  : TSSTcorpCDDVDW SH-S202N   Adapter: 0  ID: 0
Read mode               : Secure
Utilize accurate stream : Yes
Defeat audio cache      : Yes
Make use of C2 pointers : No
Read offset correction                      : 6
Overread into Lead-In and Lead-Out          : No
Fill up missing offset samples with silence : Yes
Delete leading and trailing silent blocks   : No
Null samples used in CRC calculations       : Yes
Used interface                              : Native Win32 interface for Win NT & 2000
Gap handling                                : Appended to previous track
Used output format              : User Defined Encoder
Selected bitrate                : 1024 kBit/s
Quality                         : High
Add ID3 tag                     : No
Command line compressor         : C:\Documents and Settings\Administrator\Desktop\Syrup099_47.exe Folder\Syrup.exe
Additional command line options : REACT %o %s %d "%a" "%g" "%t" "%n" "%x" "%y" "%m" "%e" "%f" "%b" %r
TOC of the extracted CD
     Track |   Start  |  Length  | Start sector | End sector
    ---------------------------------------------------------
        1  |  0:00.00 | 10:02.63 |         0    |    45212
        2  | 10:02.63 |  8:12.57 |     45213    |    82169
        3  | 18:15.45 |  6:44.30 |     82170    |   112499
Track  1
     Filename C:\DOCUME~1\ADMINI~1\LOCALS~1\Temp\Syrup\Simple Minds - Themes 4 - volume 20 - february 89 - may 90 - 01 - Street Fighting Years (live in Verona).wav
     Pre-gap length  0:00:02.00
     Peak level 88.4 %
     Track quality 100.0 %
     Test CRC FC9E27A8
     Copy CRC FC9E27A8
     Track not present in AccurateRip database
     Copy OK
Track  2
     Filename C:\DOCUME~1\ADMINI~1\LOCALS~1\Temp\Syrup\Simple Minds - Themes 4 - volume 20 - february 89 - may 90 - 02 - Mandela Day (live in Verona).wav
     Pre-gap length  0:00:00.02
     Peak level 84.4 %
     Track quality 99.9 %
     Test CRC 56C34A31
     Copy CRC 56C34A31
     Track not present in AccurateRip database
     Copy OK
Track  3
     Filename C:\DOCUME~1\ADMINI~1\LOCALS~1\Temp\Syrup\Simple Minds - Themes 4 - volume 20 - february 89 - may 90 - 03 - Kick It In (live in Verona).wav
     Pre-gap length  0:00:00.01
     Peak level 100.0 %
     Track quality 100.0 %
     Test CRC FFCFE2B6
     Copy CRC FFCFE2B6
     Track not present in AccurateRip database
     Copy OK
None of the tracks are present in the AccurateRip database
No errors occurred
End of status report
Код:
REM GENRE "New Wave"
REM DATE 1990
REM DISCID 1D05DC03
REM COMMENT "ExactAudioCopy v0.99pb4"
PERFORMER "Simple Minds"
TITLE "Theme 20 - Verona"
FILE "01 - Street Fighting Years (live in Verona).wav" WAVE
  TRACK 01 AUDIO
    TITLE "Street Fighting Years (live in Verona)"
    PERFORMER "Simple Minds"
    INDEX 01 00:00:00
  TRACK 02 AUDIO
    TITLE "Mandela Day (live in Verona)"
    PERFORMER "Simple Minds"
    INDEX 00 10:02:61
FILE "02 - Mandela Day (live in Verona).wav" WAVE
    INDEX 01 00:00:00
  TRACK 03 AUDIO
    TITLE "Kick It In (live in Verona)"
    PERFORMER "Simple Minds"
    INDEX 00 08:12:56
FILE "03 - Kick It In (live in Verona).wav" WAVE
    INDEX 01 00:00:00
21-01 Let There Be Love (Extended Mix) 8:17
21-02 Goodnight 3:21
21-03 Let There Be Love (7" Mix) 4:44
21-04 Alive And Kicking (Live) 3:52
Код:
Syrup 0.9.9.47, Track.cfg v.0993
Exact Audio Copy V0.99 prebeta 4 from 23. January 2008
EAC extraction logfile from 19. October 2008, 15:51
Simple Minds / Theme 21 - Let There Be Love
Used drive  : TSSTcorpCDDVDW SH-S202N   Adapter: 0  ID: 0
Read mode               : Secure
Utilize accurate stream : Yes
Defeat audio cache      : Yes
Make use of C2 pointers : No
Read offset correction                      : 6
Overread into Lead-In and Lead-Out          : No
Fill up missing offset samples with silence : Yes
Delete leading and trailing silent blocks   : No
Null samples used in CRC calculations       : Yes
Used interface                              : Native Win32 interface for Win NT & 2000
Gap handling                                : Appended to previous track
Used output format              : User Defined Encoder
Selected bitrate                : 896 kBit/s
Quality                         : High
Add ID3 tag                     : No
Command line compressor         : C:\Documents and Settings\Administrator\Desktop\Syrup099_47.exe Folder\Syrup.exe
Additional command line options : REACT %o %s %d "%a" "%g" "%t" "%n" "%x" "%y" "%m" "%e" "%f" "%b" %r
TOC of the extracted CD
     Track |   Start  |  Length  | Start sector | End sector
    ---------------------------------------------------------
        1  |  0:00.00 |  8:16.39 |         0    |    37238
        2  |  8:16.39 |  3:20.41 |     37239    |    52279
        3  | 11:37.05 |  4:44.16 |     52280    |    73595
        4  | 16:21.21 |  3:51.73 |     73596    |    90993
Track  1
     Filename C:\DOCUME~1\ADMINI~1\LOCALS~1\Temp\Syrup\Simple Minds - Theme 21 - Volume 5 - Let There Be Love - 01 - Let There Be Love (extended mix).wav
     Pre-gap length  0:00:02.00
     Peak level 98.0 %
     Track quality 100.0 %
     Test CRC 699D3BED
     Copy CRC 699D3BED
     Track not present in AccurateRip database
     Copy OK
Track  2
     Filename C:\DOCUME~1\ADMINI~1\LOCALS~1\Temp\Syrup\Simple Minds - Theme 21 - Volume 5 - Let There Be Love - 02 - Goodnight.wav
     Pre-gap length  0:00:00.58
     Peak level 98.0 %
     Track quality 99.9 %
     Test CRC 8EBB6869
     Copy CRC 8EBB6869
     Track not present in AccurateRip database
     Copy OK
Track  3
     Filename C:\DOCUME~1\ADMINI~1\LOCALS~1\Temp\Syrup\Simple Minds - Theme 21 - Volume 5 - Let There Be Love - 03 - Let There Be Love (7' mix).wav
     Pre-gap length  0:00:00.58
     Peak level 98.0 %
     Track quality 100.0 %
     Test CRC 16BE60F3
     Copy CRC 16BE60F3
     Track not present in AccurateRip database
     Copy OK
Track  4
     Filename C:\DOCUME~1\ADMINI~1\LOCALS~1\Temp\Syrup\Simple Minds - Theme 21 - Volume 5 - Let There Be Love - 04 - Alive and Kicking (live).wav
     Pre-gap length  0:00:00.58
     Peak level 98.0 %
     Track quality 100.0 %
     Test CRC D30E9D43
     Copy CRC D30E9D43
     Track not present in AccurateRip database
     Copy OK
None of the tracks are present in the AccurateRip database
No errors occurred
End of status report
Код:
REM GENRE Rock
REM DATE 2008
REM DISCID 4304BD04
REM COMMENT "ExactAudioCopy v0.99pb4"
PERFORMER "Simple Minds"
TITLE "Theme 21 - Let There Be Love"
FILE "01 - Let There Be Love (extended mix).wav" WAVE
  TRACK 01 AUDIO
    TITLE "Let There Be Love (extended mix)"
    PERFORMER "Simple Minds"
    INDEX 01 00:00:00
  TRACK 02 AUDIO
    TITLE "Goodnight"
    PERFORMER "Simple Minds"
    INDEX 00 08:15:56
FILE "02 - Goodnight.wav" WAVE
    INDEX 01 00:00:00
  TRACK 03 AUDIO
    TITLE "Let There Be Love (7' mix)"
    PERFORMER "Simple Minds"
    INDEX 00 03:19:58
FILE "03 - Let There Be Love (7' mix).wav" WAVE
    INDEX 01 00:00:00
  TRACK 04 AUDIO
    TITLE "Alive and Kicking (live)"
    PERFORMER "Simple Minds"
    INDEX 00 04:43:33
FILE "04 - Alive and Kicking (live).wav" WAVE
    INDEX 01 00:00:00
22-01 See The Lights (Julian Mendelsohn Extended Remix) 7:01
22-02 Theme For Great Cities ' 91 (Extended Version) 6:33
22-03 Theme For Great Cities ' 91 (Edit) 4:43
22-04 Soul Crying Out (Live) 8:05
Код:
Syrup 0.9.9.47, Track.cfg v.0993
Exact Audio Copy V0.99 prebeta 4 from 23. January 2008
EAC extraction logfile from 19. October 2008, 22:49
Simple Minds / Theme 22 - See The Lights
Used drive  : TSSTcorpCDDVDW SH-S202N   Adapter: 0  ID: 0
Read mode               : Secure
Utilize accurate stream : Yes
Defeat audio cache      : Yes
Make use of C2 pointers : No
Read offset correction                      : 6
Overread into Lead-In and Lead-Out          : No
Fill up missing offset samples with silence : Yes
Delete leading and trailing silent blocks   : No
Null samples used in CRC calculations       : Yes
Used interface                              : Native Win32 interface for Win NT & 2000
Gap handling                                : Appended to previous track
Used output format              : User Defined Encoder
Selected bitrate                : 896 kBit/s
Quality                         : High
Add ID3 tag                     : No
Command line compressor         : C:\Documents and Settings\Administrator\Desktop\Syrup099_47.exe Folder\Syrup.exe
Additional command line options : REACT %o %s %d "%a" "%g" "%t" "%n" "%x" "%y" "%m" "%e" "%f" "%b" %r
TOC of the extracted CD
     Track |   Start  |  Length  | Start sector | End sector
    ---------------------------------------------------------
        1  |  0:00.00 |  7:00.65 |         0    |    31564
        2  |  7:00.65 |  6:32.49 |     31565    |    61013
        3  | 13:33.39 |  4:42.40 |     61014    |    82203
        4  | 18:16.04 |  8:04.71 |     82204    |   118574
Track  1
     Filename C:\DOCUME~1\ADMINI~1\LOCALS~1\Temp\Syrup\Simple Minds - Themes 22 - Vol. 5 (March 91 - September 92) - 01 - See The Lights (Mendellsohn Mix).wav
     Pre-gap length  0:00:02.00
     Peak level 93.2 %
     Track quality 100.0 %
     Test CRC 440E088D
     Copy CRC 440E088D
     Track not present in AccurateRip database
     Copy OK
Track  2
     Filename C:\DOCUME~1\ADMINI~1\LOCALS~1\Temp\Syrup\Simple Minds - Themes 22 - Vol. 5 (March 91 - September 92) - 02 - Theme For Great Cities '91 (Extended).wav
     Pre-gap length  0:00:02.04
     Peak level 93.1 %
     Track quality 100.0 %
     Test CRC 6282D507
     Copy CRC 6282D507
     Track not present in AccurateRip database
     Copy OK
Track  3
     Filename C:\DOCUME~1\ADMINI~1\LOCALS~1\Temp\Syrup\Simple Minds - Themes 22 - Vol. 5 (March 91 - September 92) - 03 - Theme For Great Cities (Edit).wav
     Pre-gap length  0:00:00.70
     Peak level 88.4 %
     Track quality 100.0 %
     Test CRC 743BCE18
     Copy CRC 743BCE18
     Track not present in AccurateRip database
     Copy OK
Track  4
     Filename C:\DOCUME~1\ADMINI~1\LOCALS~1\Temp\Syrup\Simple Minds - Themes 22 - Vol. 5 (March 91 - September 92) - 04 - Soul Crying Out (Live).wav
     Pre-gap length  0:00:00.48
     Peak level 88.5 %
     Track quality 100.0 %
     Test CRC A2C4D440
     Copy CRC A2C4D440
     Track not present in AccurateRip database
     Copy OK
None of the tracks are present in the AccurateRip database
No errors occurred
End of status report
Код:
REM DISCNUMBER 1
REM TOTALDISCS 1
REM DATE 2008
REM DISCID 2A062D04
REM COMMENT "ExactAudioCopy v0.99pb4"
PERFORMER "Simple Minds"
TITLE "Theme 22 - See The Lights"
FILE "01 - See The Lights (Mendellsohn Mix).wav" WAVE
  TRACK 01 AUDIO
    TITLE "See The Lights (Mendellsohn Mix)"
    PERFORMER "Simple Minds"
    INDEX 01 00:00:00
  TRACK 02 AUDIO
    TITLE "Theme For Great Cities '91 (Extended)"
    PERFORMER "Simple Minds"
    INDEX 00 06:58:61
FILE "02 - Theme For Great Cities '91 (Extended).wav" WAVE
    INDEX 01 00:00:00
  TRACK 03 AUDIO
    TITLE "Theme For Great Cities (Edit)"
    PERFORMER "Simple Minds"
    INDEX 00 06:31:54
FILE "03 - Theme For Great Cities (Edit).wav" WAVE
    INDEX 01 00:00:00
  TRACK 04 AUDIO
    TITLE "Soul Crying Out (Live)"
    PERFORMER "Simple Minds"
    INDEX 00 04:41:67
FILE "04 - Soul Crying Out (Live).wav" WAVE
    INDEX 01 00:00:00
23-01 Stand By Love 4:10
23-02 King Is White And In The Crowd (Live) 4:20
23-03 Let There Be Love (Live) 5:22
Код:
Syrup 0.9.9.47, Track.cfg v.0993
Exact Audio Copy V0.99 prebeta 4 from 23. January 2008
EAC extraction logfile from 19. October 2008, 23:19
Simple Minds / Theme 23 - Stand By Love
Used drive  : TSSTcorpCDDVDW SH-S202N   Adapter: 0  ID: 0
Read mode               : Secure
Utilize accurate stream : Yes
Defeat audio cache      : Yes
Make use of C2 pointers : No
Read offset correction                      : 6
Overread into Lead-In and Lead-Out          : No
Fill up missing offset samples with silence : Yes
Delete leading and trailing silent blocks   : No
Null samples used in CRC calculations       : Yes
Used interface                              : Native Win32 interface for Win NT & 2000
Gap handling                                : Appended to previous track
Used output format              : User Defined Encoder
Selected bitrate                : 896 kBit/s
Quality                         : High
Add ID3 tag                     : No
Command line compressor         : C:\Documents and Settings\Administrator\Desktop\Syrup099_47.exe Folder\Syrup.exe
Additional command line options : REACT %o %s %d "%a" "%g" "%t" "%n" "%x" "%y" "%m" "%e" "%f" "%b" %r
TOC of the extracted CD
     Track |   Start  |  Length  | Start sector | End sector
    ---------------------------------------------------------
        1  |  0:00.00 |  4:10.06 |         0    |    18755
        2  |  4:10.06 |  4:20.10 |     18756    |    38265
        3  |  8:30.16 |  5:21.55 |     38266    |    62395
Track  1
     Filename C:\DOCUME~1\ADMINI~1\LOCALS~1\Temp\Syrup\Simple Minds - Themes 23 - Stand By Love - 01 - Stand By Love.wav
     Pre-gap length  0:00:02.00
     Peak level 98.0 %
     Track quality 100.0 %
     Test CRC AEB54277
     Copy CRC AEB54277
     Track not present in AccurateRip database
     Copy OK
Track  2
     Filename C:\DOCUME~1\ADMINI~1\LOCALS~1\Temp\Syrup\Simple Minds - Themes 23 - Stand By Love - 02 - King Is White And In The Crowd (live).wav
     Pre-gap length  0:00:02.47
     Peak level 98.0 %
     Track quality 100.0 %
     Test CRC 546B4B3A
     Copy CRC 546B4B3A
     Track not present in AccurateRip database
     Copy OK
Track  3
     Filename C:\DOCUME~1\ADMINI~1\LOCALS~1\Temp\Syrup\Simple Minds - Themes 23 - Stand By Love - 03 - Let There Be Love (live).wav
     Pre-gap length  0:00:02.46
     Peak level 89.1 %
     Track quality 100.0 %
     Test CRC B9D224C9
     Copy CRC B9D224C9
     Track not present in AccurateRip database
     Copy OK
None of the tracks are present in the AccurateRip database
No errors occurred
End of status report
Код:
REM DISCNUMBER 1
REM TOTALDISCS 1
REM GENRE Rock
REM DISCID 13033F03
REM COMMENT "ExactAudioCopy v0.99pb4"
PERFORMER "Simple Minds"
TITLE "Theme 23 - Stand By Love"
FILE "01 - Stand By Love.wav" WAVE
  TRACK 01 AUDIO
    TITLE "Stand By Love"
    PERFORMER "Simple Minds"
    INDEX 01 00:00:00
  TRACK 02 AUDIO
    TITLE "King Is White And In The Crowd (live)"
    PERFORMER "Simple Minds"
    INDEX 00 04:07:34
FILE "02 - King Is White And In The Crowd (live).wav" WAVE
    INDEX 01 00:00:00
  TRACK 03 AUDIO
    TITLE "Let There Be Love (live)"
    PERFORMER "Simple Minds"
    INDEX 00 04:17:39
FILE "03 - Let There Be Love (live).wav" WAVE
    INDEX 01 00:00:00
24-01 Real Life (Edit) 3:56
24-02 See The Lights (Live) 5:05
24-03 Belfast Child (Live) 9:16
Код:
Syrup 0.9.9.47, Track.cfg v.0993
Exact Audio Copy V0.99 prebeta 4 from 23. January 2008
EAC extraction logfile from 19. October 2008, 23:39
Simple Minds / Themes 24 - Real Life
Used drive  : TSSTcorpCDDVDW SH-S202N   Adapter: 0  ID: 0
Read mode               : Secure
Utilize accurate stream : Yes
Defeat audio cache      : Yes
Make use of C2 pointers : No
Read offset correction                      : 6
Overread into Lead-In and Lead-Out          : No
Fill up missing offset samples with silence : Yes
Delete leading and trailing silent blocks   : No
Null samples used in CRC calculations       : Yes
Used interface                              : Native Win32 interface for Win NT & 2000
Gap handling                                : Appended to previous track
Used output format              : User Defined Encoder
Selected bitrate                : 896 kBit/s
Quality                         : High
Add ID3 tag                     : No
Command line compressor         : C:\Documents and Settings\Administrator\Desktop\Syrup099_47.exe Folder\Syrup.exe
Additional command line options : REACT %o %s %d "%a" "%g" "%t" "%n" "%x" "%y" "%m" "%e" "%f" "%b" %r
TOC of the extracted CD
     Track |   Start  |  Length  | Start sector | End sector
    ---------------------------------------------------------
        1  |  0:00.00 |  3:56.17 |         0    |    17716
        2  |  3:56.17 |  5:04.60 |     17717    |    40576
        3  |  9:01.02 |  9:15.63 |     40577    |    82264
Track  1
     Filename C:\DOCUME~1\ADMINI~1\LOCALS~1\Temp\Syrup\Simple Minds - Themes 24 - Real Life - 01 - Real Life (Edit).wav
     Pre-gap length  0:00:02.00
     Peak level 98.0 %
     Track quality 100.0 %
     Test CRC 2BE8B50A
     Copy CRC 2BE8B50A
     Track not present in AccurateRip database
     Copy OK
Track  2
     Filename C:\DOCUME~1\ADMINI~1\LOCALS~1\Temp\Syrup\Simple Minds - Themes 24 - Real Life - 02 - See The Lights (Live).wav
     Pre-gap length  0:00:00.58
     Peak level 98.0 %
     Track quality 100.0 %
     Test CRC AF556248
     Copy CRC AF556248
     Track not present in AccurateRip database
     Copy OK
Track  3
     Filename C:\DOCUME~1\ADMINI~1\LOCALS~1\Temp\Syrup\Simple Minds - Themes 24 - Real Life - 03 - Belfast Child (Live).wav
     Pre-gap length  0:00:00.58
     Peak level 98.0 %
     Track quality 100.0 %
     Test CRC 3F35CA3E
     Copy CRC 3F35CA3E
     Track not present in AccurateRip database
     Copy OK
None of the tracks are present in the AccurateRip database
No errors occurred
End of status report
Код:
REM DISCNUMBER 1
REM TOTALDISCS 1
REM DISCID 1B044803
REM COMMENT "ExactAudioCopy v0.99pb4"
PERFORMER "Simple Minds"
TITLE "Themes 24 - Real Life"
FILE "01 - Real Life (Edit).wav" WAVE
  TRACK 01 AUDIO
    TITLE "Real Life (Edit)"
    PERFORMER "Simple Minds"
    INDEX 01 00:00:00
  TRACK 02 AUDIO
    TITLE "See The Lights (Live)"
    PERFORMER "Simple Minds"
    INDEX 00 03:55:34
FILE "02 - See The Lights (Live).wav" WAVE
    INDEX 01 00:00:00
  TRACK 03 AUDIO
    TITLE "Belfast Child (Live)"
    PERFORMER "Simple Minds"
    INDEX 00 05:04:02
FILE "03 - Belfast Child (Live).wav" WAVE
    INDEX 01 00:00:00
25-01 Love Song (Extended Version) 5:06
25-02 Love Song (Live) 4:31
25-03 Travelling Man (Live) 5:16
25-04 Oh Jungleland (Live) 6:40
25-05 Alive And Kicking (Live) 6:06
Код:
Syrup 0.9.9.47, Track.cfg v.0993
Exact Audio Copy V0.99 prebeta 4 from 23. January 2008
EAC extraction logfile from 20. October 2008, 0:44
Simple Minds / Theme 25 - Love Song
Used drive  : TSSTcorpCDDVDW SH-S202N   Adapter: 0  ID: 0
Read mode               : Secure
Utilize accurate stream : Yes
Defeat audio cache      : Yes
Make use of C2 pointers : No
Read offset correction                      : 6
Overread into Lead-In and Lead-Out          : No
Fill up missing offset samples with silence : Yes
Delete leading and trailing silent blocks   : No
Null samples used in CRC calculations       : Yes
Used interface                              : Native Win32 interface for Win NT & 2000
Gap handling                                : Appended to previous track
Used output format              : User Defined Encoder
Selected bitrate                : 896 kBit/s
Quality                         : High
Add ID3 tag                     : No
Command line compressor         : C:\Documents and Settings\Administrator\Desktop\Syrup099_47.exe Folder\Syrup.exe
Additional command line options : REACT %o %s %d "%a" "%g" "%t" "%n" "%x" "%y" "%m" "%e" "%f" "%b" %r
TOC of the extracted CD
     Track |   Start  |  Length  | Start sector | End sector
    ---------------------------------------------------------
        1  |  0:00.00 |  5:05.51 |         0    |    22925
        2  |  5:05.51 |  4:31.11 |     22926    |    43261
        3  |  9:36.62 |  5:15.64 |     43262    |    66950
        4  | 14:52.51 |  6:39.62 |     66951    |    96937
        5  | 21:32.38 |  6:06.16 |     96938    |   124403
Track  1
     Filename C:\DOCUME~1\ADMINI~1\LOCALS~1\Temp\Syrup\Simple Minds - Theme 25 - Love Song - 01 - Love Song (extended version).wav
     Pre-gap length  0:00:02.00
     Peak level 98.0 %
     Track quality 100.0 %
     Test CRC 9182B27B
     Copy CRC 9182B27B
     Track not present in AccurateRip database
     Copy OK
Track  2
     Filename C:\DOCUME~1\ADMINI~1\LOCALS~1\Temp\Syrup\Simple Minds - Theme 25 - Love Song - 02 - Love Song (live).wav
     Pre-gap length  0:00:00.58
     Peak level 98.0 %
     Track quality 100.0 %
     Test CRC 03529EF3
     Copy CRC 03529EF3
     Track not present in AccurateRip database
     Copy OK
Track  3
     Filename C:\DOCUME~1\ADMINI~1\LOCALS~1\Temp\Syrup\Simple Minds - Theme 25 - Love Song - 03 - Traveling Man (live).wav
     Peak level 98.0 %
     Track quality 100.0 %
     Test CRC 1E1072D7
     Copy CRC 1E1072D7
     Track not present in AccurateRip database
     Copy OK
Track  4
     Filename C:\DOCUME~1\ADMINI~1\LOCALS~1\Temp\Syrup\Simple Minds - Theme 25 - Love Song - 04 - Oh Jungleland (live).wav
     Peak level 98.0 %
     Track quality 100.0 %
     Test CRC 146572D1
     Copy CRC 146572D1
     Track not present in AccurateRip database
     Copy OK
Track  5
     Filename C:\DOCUME~1\ADMINI~1\LOCALS~1\Temp\Syrup\Simple Minds - Theme 25 - Love Song - 05 - Alive and Kicking (live).wav
     Peak level 98.0 %
     Track quality 100.0 %
     Test CRC E003EC2A
     Copy CRC E003EC2A
     Track not present in AccurateRip database
     Copy OK
None of the tracks are present in the AccurateRip database
No errors occurred
End of status report
Код:
REM DISCNUMBER 1
REM TOTALDISCS 1
REM GENRE Pop
REM DATE 2008
REM DISCID 45067A05
REM COMMENT "ExactAudioCopy v0.99pb4"
PERFORMER "Simple Minds"
TITLE "Theme 25 - Love Song"
FILE "01 - Love Song (extended version).wav" WAVE
  TRACK 01 AUDIO
    TITLE "Love Song (extended version)"
    PERFORMER "Simple Minds"
    INDEX 01 00:00:00
  TRACK 02 AUDIO
    TITLE "Love Song (live)"
    PERFORMER "Simple Minds"
    INDEX 00 05:04:68
FILE "02 - Love Song (live).wav" WAVE
    INDEX 01 00:00:00
FILE "03 - Traveling Man (live).wav" WAVE
  TRACK 03 AUDIO
    TITLE "Traveling Man (live)"
    PERFORMER "Simple Minds"
    INDEX 01 00:00:00
FILE "04 - Oh Jungleland (live).wav" WAVE
  TRACK 04 AUDIO
    TITLE "Oh Jungleland (live)"
    PERFORMER "Simple Minds"
    INDEX 01 00:00:00
FILE "05 - Alive and Kicking (live).wav" WAVE
  TRACK 05 AUDIO
    TITLE "Alive and Kicking (live)"
    PERFORMER "Simple Minds"
    INDEX 01 00:00:00
Правила, инструкции, FAQ!!!
Торрент  Добавлен [26 мар 2019, 20:44] Скачать торрент Магнет ссылка
Скачать торрент
[ Размер 37.51 КБ / Просмотров 2 ]

Статус
Проверен 
 
Размер  3.04 ГБ
Приватный: Нет (DHT включён)
.torrent скачан  0
 


     Отправить личное сообщение
   
Страница 1 из 1
Показать сообщения за:  Поле сортировки  
Начать новую тему Ответить на тему


Сейчас этот форум просматривают: нет зарегистрированных пользователей и гости: 0


Вы не можете начинать темы
Вы не можете отвечать на сообщения
Вы не можете редактировать свои сообщения
Вы не можете удалять свои сообщения
Вы не можете добавлять вложения

Перейти:  
cron