Начать новую тему Ответить на тему
Статистика раздачи
Размер: 375.94 МБ | Добавлен: 26 мар 2019, 19:46 | Скачали: 1
Сидеров: 0  [0 байт/сек]    Личеров: 1  [0 байт/сек]
Пред. тема | След. тема 

Автор
Сообщение

СообщениеДобавлено: 26 мар 2019, 19:46 

Ответить с цитатой 

Shawn Mullins - The Essential

Жанр: Pop-Rock
Год выпуска диска: 2003
Производитель диска: США
Аудио кодек: APE
Тип рипа: tracks+.cue
Битрейт аудио: lossless
Продолжительность: 00:58:27
Трэклист:
1. Lullaby 5:30
2. Lately 4:22
3. This Time/Last Time 3:00
4. Canyons & Caverns 4:19
5. The Gulf of Mexico 3:44
6. Anchored in You 3:21
7. Shimmer 4:09
8. Everywhere I Go 3:52
9. Somethin' to Believe In 3:44
10. Santa Fe 3:50
11. I Know 4:01
12. Joy Terrell Brown [Solo Acoustic Version] 2:46
13. Lonesome, I Know You Too Well [Live] 3:13
14. Border Song 3:24
15. Lullaby [Acoustic Version] 5:05
Доп. информация:
EAC extraction logfile from 5. August 2009, 22:20 for CD
Shawn Mullins / The Essential Shawn Mullins
Used drive : HL-DT-STDVDRAM GSA-H42N Adapter: 0 ID: 1
Read mode : Secure with NO C2, accurate stream, disable cache
Read offset correction : 667
Overread into Lead-In and Lead-Out : No
Used output format : Internal WAV Routines
44.100 Hz; 16 Bit; Stereo
Other options :
Fill up missing offset samples with silence : Yes
Delete leading and trailing silent blocks : No
Native Win32 interface for Win NT & 2000
Track 1
Filename D:\дАУН\Музыка\Flac\01. Shawn Mullins - Lullaby.wav
Pre-gap length 0:00:02.00
Peak level 98.8 %
Track quality 99.8 %
Test CRC 6C9B0267
Copy CRC 6C9B0267
Copy OK
Track 2
Filename D:\дАУН\Музыка\Flac\02. Shawn Mullins - Lately.wav
Peak level 99.8 %
Track quality 99.9 %
Test CRC AECC633B
Copy CRC AECC633B
Copy OK
Track 3
Filename D:\дАУН\Музыка\Flac\03. Shawn Mullins - This Time-Last Time.wav
Peak level 100.0 %
Track quality 99.9 %
Test CRC 5272735B
Copy CRC 5272735B
Copy OK
Track 4
Filename D:\дАУН\Музыка\Flac\04. Shawn Mullins - Canyons & Caverns.wav
Peak level 98.8 %
Track quality 100.0 %
Test CRC 31D0B0A6
Copy CRC 31D0B0A6
Copy OK
Track 5
Filename D:\дАУН\Музыка\Flac\05. Shawn Mullins - The Gulf Of Mexico.wav
Peak level 98.8 %
Track quality 99.9 %
Test CRC 75E3FD84
Copy CRC 75E3FD84
Copy OK
Track 6
Filename D:\дАУН\Музыка\Flac\06. Shawn Mullins - Anchored In You.wav
Peak level 100.0 %
Track quality 100.0 %
Test CRC EE8B33E4
Copy CRC EE8B33E4
Copy OK
Track 7
Filename D:\дАУН\Музыка\Flac\07. Shawn Mullins - Shimmer.wav
Peak level 100.0 %
Track quality 100.0 %
Test CRC 13294F00
Copy CRC 13294F00
Copy OK
Track 8
Filename D:\дАУН\Музыка\Flac\08. Shawn Mullins - Everywhere I Go.wav
Peak level 93.3 %
Track quality 100.0 %
Test CRC 6C224F1F
Copy CRC 6C224F1F
Copy OK
Track 9
Filename D:\дАУН\Музыка\Flac\09. Shawn Mullins - Somethin' To Believe In.wav
Peak level 83.1 %
Track quality 100.0 %
Test CRC 69334ADF
Copy CRC 69334ADF
Copy OK
Track 10
Filename D:\дАУН\Музыка\Flac\10. Shawn Mullins - Santa Fe.wav
Peak level 98.8 %
Track quality 100.0 %
Test CRC 7AAAD0FF
Copy CRC 7AAAD0FF
Copy OK
Track 11
Filename D:\дАУН\Музыка\Flac\11. Shawn Mullins - I Know.wav
Peak level 98.8 %
Track quality 100.0 %
Test CRC 880A61D1
Copy CRC 880A61D1
Copy OK
Track 12
Filename D:\дАУН\Музыка\Flac\12. Shawn Mullins - Joy Terrell Brown (Solo Acoustic Version).wav
Peak level 98.8 %
Track quality 100.0 %
Test CRC 83C35D91
Copy CRC 83C35D91
Copy OK
Track 13
Filename D:\дАУН\Музыка\Flac\13. Shawn Mullins - Lonesome, I Know You Too Well (Live).wav
Peak level 99.3 %
Track quality 100.0 %
Test CRC 6142108E
Copy CRC 6142108E
Copy OK
Track 14
Filename D:\дАУН\Музыка\Flac\14. Shawn Mullins - Border Song (with Elton John).wav
Peak level 98.8 %
Track quality 100.0 %
Test CRC 8222BBC7
Copy CRC 8222BBC7
Copy OK
Track 15
Filename D:\дАУН\Музыка\Flac\15. Shawn Mullins - Lullaby (Acoustic Version).wav
Peak level 98.8 %
Track quality 100.0 %
Test CRC E32DB0C4
Copy CRC E32DB0C4
Copy OK
No errors occured
End of status report
REM DISCID DC0DB30F
REM COMMENT "ExactAudioCopy v0.95b3"
PERFORMER "Shawn Mullins"
TITLE "The Essential Shawn Mullins"
FILE "01. Shawn Mullins - Lullaby.wav" WAVE
TRACK 01 AUDIO
TITLE "Lullaby "
PERFORMER "Shawn Mullins"
INDEX 01 00:00:00
FILE "02. Shawn Mullins - Lately.wav" WAVE
TRACK 02 AUDIO
TITLE "Lately"
PERFORMER "Shawn Mullins"
INDEX 01 00:00:00
FILE "03. Shawn Mullins - This Time-Last Time.wav" WAVE
TRACK 03 AUDIO
TITLE "This Time\Last Time"
PERFORMER "Shawn Mullins"
INDEX 01 00:00:00
FILE "04. Shawn Mullins - Canyons & Caverns.wav" WAVE
TRACK 04 AUDIO
TITLE "Canyons & Caverns"
PERFORMER "Shawn Mullins"
INDEX 01 00:00:00
FILE "05. Shawn Mullins - The Gulf Of Mexico.wav" WAVE
TRACK 05 AUDIO
TITLE "The Gulf Of Mexico"
PERFORMER "Shawn Mullins"
INDEX 01 00:00:00
FILE "06. Shawn Mullins - Anchored In You.wav" WAVE
TRACK 06 AUDIO
TITLE "Anchored In You"
PERFORMER "Shawn Mullins"
INDEX 01 00:00:00
FILE "07. Shawn Mullins - Shimmer.wav" WAVE
TRACK 07 AUDIO
TITLE "Shimmer"
PERFORMER "Shawn Mullins"
INDEX 01 00:00:00
FILE "08. Shawn Mullins - Everywhere I Go.wav" WAVE
TRACK 08 AUDIO
TITLE "Everywhere I Go"
PERFORMER "Shawn Mullins"
INDEX 01 00:00:00
FILE "09. Shawn Mullins - Somethin' To Believe In.wav" WAVE
TRACK 09 AUDIO
TITLE "Somethin' To Believe In"
PERFORMER "Shawn Mullins"
INDEX 01 00:00:00
FILE "10. Shawn Mullins - Santa Fe.wav" WAVE
TRACK 10 AUDIO
TITLE "Santa Fe"
PERFORMER "Shawn Mullins"
INDEX 01 00:00:00
FILE "11. Shawn Mullins - I Know.wav" WAVE
TRACK 11 AUDIO
TITLE "I Know"
PERFORMER "Shawn Mullins"
INDEX 01 00:00:00
FILE "12. Shawn Mullins - Joy Terrell Brown (Solo Acoustic Version).wav" WAVE
TRACK 12 AUDIO
TITLE "Joy Terrell Brown (Solo Acoustic Version)"
PERFORMER "Shawn Mullins"
INDEX 01 00:00:00
FILE "13. Shawn Mullins - Lonesome, I Know You Too Well (Live).wav" WAVE
TRACK 13 AUDIO
TITLE "Lonesome, I Know You Too Well (Live)"
PERFORMER "Shawn Mullins"
INDEX 01 00:00:00
FILE "14. Shawn Mullins - Border Song (with Elton John).wav" WAVE
TRACK 14 AUDIO
TITLE "Border Song (with Elton John)"
PERFORMER "Shawn Mullins"
INDEX 01 00:00:00
FILE "15. Shawn Mullins - Lullaby (Acoustic Version).wav" WAVE
TRACK 15 AUDIO
TITLE "Lullaby (Acoustic Version)"
PERFORMER "Shawn Mullins"
INDEX 01 00:00:00
AUDIOCHECKER v1.2 - by Dester - opdester@freemail.hu
~~~~~~~~~~~~~~~~~
01 -===- D:\дАУН\Музыка\Shawn Mullins - The Essential\01. Shawn Mullins - Lullaby.ape
Extracted successfully
Conclusion: This track looks like CDDA with probability 100%
02 -===- D:\дАУН\Музыка\Shawn Mullins - The Essential\02. Shawn Mullins - Lately.ape
Extracted successfully
Conclusion: This track looks like CDDA with probability 100%
03 -===- D:\дАУН\Музыка\Shawn Mullins - The Essential\03. Shawn Mullins - This Time-Last Time.ape
Extracted successfully
Conclusion: This track looks like CDDA with probability 100%
04 -===- D:\дАУН\Музыка\Shawn Mullins - The Essential\04. Shawn Mullins - Canyons & Caverns.ape
Extracted successfully
Conclusion: This track looks like CDDA with probability 100%
05 -===- D:\дАУН\Музыка\Shawn Mullins - The Essential\05. Shawn Mullins - The Gulf Of Mexico.ape
Extracted successfully
Conclusion: This track looks like CDDA with probability 99%
06 -===- D:\дАУН\Музыка\Shawn Mullins - The Essential\06. Shawn Mullins - Anchored In You.ape
Extracted successfully
Conclusion: This track looks like CDDA with probability 100%
07 -===- D:\дАУН\Музыка\Shawn Mullins - The Essential\07. Shawn Mullins - Shimmer.ape
Extracted successfully
Conclusion: This track looks like CDDA with probability 100%
08 -===- D:\дАУН\Музыка\Shawn Mullins - The Essential\08. Shawn Mullins - Everywhere I Go.ape
Extracted successfully
Conclusion: This track looks like CDDA with probability 100%
09 -===- D:\дАУН\Музыка\Shawn Mullins - The Essential\09. Shawn Mullins - Somethin' To Believe In.ape
Extracted successfully
Conclusion: This track looks like CDDA with probability 100%
10 -===- D:\дАУН\Музыка\Shawn Mullins - The Essential\10. Shawn Mullins - Santa Fe.ape
Extracted successfully
Conclusion: This track looks like CDDA with probability 100%
11 -===- D:\дАУН\Музыка\Shawn Mullins - The Essential\11. Shawn Mullins - I Know.ape
Extracted successfully
Conclusion: This track looks like CDDA with probability 100%
12 -===- D:\дАУН\Музыка\Shawn Mullins - The Essential\12. Shawn Mullins - Joy Terrell Brown (Solo Acoustic Version).ape
Extracted successfully
Conclusion: This track looks like CDDA with probability 100%
13 -===- D:\дАУН\Музыка\Shawn Mullins - The Essential\13. Shawn Mullins - Lonesome, I Know You Too Well (Live).ape
Extracted successfully
Conclusion: This track looks like CDDA with probability 99%
14 -===- D:\дАУН\Музыка\Shawn Mullins - The Essential\14. Shawn Mullins - Border Song (with Elton John).ape
Extracted successfully
Conclusion: This track looks like CDDA with probability 100%
15 -===- D:\дАУН\Музыка\Shawn Mullins - The Essential\15. Shawn Mullins - Lullaby (Acoustic Version).ape
Extracted successfully
Conclusion: This track looks like CDDA with probability 100%
Правила, инструкции, FAQ!!!
Торрент  Добавлен [26 мар 2019, 19:46] Скачать торрент Магнет ссылка
Скачать торрент
[ Размер 16.42 КБ / Просмотров 8 ]

Статус
Проверен 
 
Размер  375.94 МБ
Приватный: Нет (DHT включён)
.torrent скачан  1
 


     Отправить личное сообщение
   
Страница 1 из 1
Показать сообщения за:  Поле сортировки  
Начать новую тему Ответить на тему


Сейчас этот форум просматривают: нет зарегистрированных пользователей и гости: 0


Вы не можете начинать темы
Вы не можете отвечать на сообщения
Вы не можете редактировать свои сообщения
Вы не можете удалять свои сообщения
Вы не можете добавлять вложения

Перейти:  
cron