Начать новую тему Ответить на тему
Статистика раздачи
Размер: 333.68 МБ | Добавлен: 26 мар 2019, 20:12 | Скачали: 0
Сидеров: 0  [0 байт/сек]    Личеров: 0  [0 байт/сек]
Пред. тема | След. тема 

Автор
Сообщение

СообщениеДобавлено: 26 мар 2019, 20:12 

Ответить с цитатой 

Shannon Noll - A Million Suns
Жанр: Pop-rock
Год издания диска: 2011
Издатель (лейбл): Universal Music Australia
Номер по каталогу: 2784207
Страна: Australia
Аудиокодек: FLAC (*.flac)
Тип рипа: tracks+.cue
Битрейт аудио: lossless
Продолжительность: 00:43:57
Источник (релизер): what.cd (CrazyBull)
Наличие сканов в содержимом раздачи: нет
Треклист:
01. Switch Me On (3:28)
02. A Million Suns (3:14)
03. My Place In The Line (3:55)
04. Come Home (3:41)
05. Rewind (4:00)
06. 'Till We Say So (3:48)
07. Long Way Home (3:47)
08. Living In Stereo (3:33)
09. Path Of Gold (3:35)
10. Collide (3:47)
11. Would It Be So Bad (3:57)
12. It's A Man's Man's Man's World (3:13)
Код:
Exact Audio Copy V1.0 beta 3 from 29. August 2011
EAC extraction logfile from 21. November 2011, 20:31
Shannon Noll / A Million Suns
Used drive  : ASUS    DRW-24B1LT   Adapter: 1  ID: 0
Read mode               : Secure
Utilize accurate stream : Yes
Defeat audio cache      : Yes
Make use of C2 pointers : No
Read offset correction                      : 6
Overread into Lead-In and Lead-Out          : No
Fill up missing offset samples with silence : Yes
Delete leading and trailing silent blocks   : No
Null samples used in CRC calculations       : Yes
Used interface                              : Native Win32 interface for Win NT & 2000
Gap handling                                : Appended to previous track
Used output format              : User Defined Encoder
Selected bitrate                : 1024 kBit/s
Quality                         : High
Add ID3 tag                     : No
Command line compressor         : C:\Program Files (x86)\Exact Audio Copy\Flac\flac.exe
Additional command line options : -8 -V -T "Artist=%artist%" -T "Title=%title%" -T "Album=%albumtitle%" -T "Date=%year%" -T "Tracknumber=%tracknr%" -T "Genre=%genre%" %source% -o %dest%
TOC of the extracted CD
     Track |   Start  |  Length  | Start sector | End sector
    ---------------------------------------------------------
        1  |  0:00.00 |  3:27.38 |         0    |    15562
        2  |  3:27.38 |  3:13.40 |     15563    |    30077
        3  |  6:41.03 |  3:55.04 |     30078    |    47706
        4  | 10:36.07 |  3:40.38 |     47707    |    64244
        5  | 14:16.45 |  4:00.35 |     64245    |    82279
        6  | 18:17.05 |  3:47.55 |     82280    |    99359
        7  | 22:04.60 |  3:47.15 |     99360    |   116399
        8  | 25:52.00 |  3:33.02 |    116400    |   132376
        9  | 29:25.02 |  3:34.66 |    132377    |   148492
       10  | 32:59.68 |  3:47.00 |    148493    |   165517
       11  | 36:46.68 |  3:57.25 |    165518    |   183317
       12  | 40:44.18 |  3:13.01 |    183318    |   197793
Track  1
     Filename C:\Shannon Noll - A Million Suns - flac\01 - Switch Me On.wav
     Pre-gap length  0:00:02.00
     Peak level 97.6 %
     Extraction speed 2.6 X
     Track quality 99.9 %
     Test CRC 0EE919D2
     Copy CRC 0EE919D2
     Track not present in AccurateRip database
     Copy OK
Track  2
     Filename C:\Shannon Noll - A Million Suns - flac\02 - A Million Suns.wav
     Pre-gap length  0:00:00.74
     Peak level 97.6 %
     Extraction speed 2.8 X
     Track quality 99.9 %
     Test CRC 0130C667
     Copy CRC 0130C667
     Track not present in AccurateRip database
     Copy OK
Track  3
     Filename C:\Shannon Noll - A Million Suns - flac\03 - My Place In The Line.wav
     Pre-gap length  0:00:01.52
     Peak level 99.4 %
     Extraction speed 3.2 X
     Track quality 99.9 %
     Test CRC 807E04E8
     Copy CRC 807E04E8
     Track not present in AccurateRip database
     Copy OK
Track  4
     Filename C:\Shannon Noll - A Million Suns - flac\04 - Come Home.wav
     Peak level 99.9 %
     Extraction speed 4.3 X
     Track quality 100.0 %
     Test CRC D3B4021A
     Copy CRC D3B4021A
     Track not present in AccurateRip database
     Copy OK
Track  5
     Filename C:\Shannon Noll - A Million Suns - flac\05 - Rewind.wav
     Peak level 96.4 %
     Extraction speed 4.6 X
     Track quality 100.0 %
     Test CRC 28180983
     Copy CRC 28180983
     Track not present in AccurateRip database
     Copy OK
Track  6
     Filename C:\Shannon Noll - A Million Suns - flac\06 - 'Till We Say So.wav
     Peak level 99.9 %
     Extraction speed 3.8 X
     Track quality 99.9 %
     Test CRC 6B26982A
     Copy CRC 6B26982A
     Track not present in AccurateRip database
     Copy OK
Track  7
     Filename C:\Shannon Noll - A Million Suns - flac\07 - Long Way Home.wav
     Pre-gap length  0:00:01.56
     Peak level 98.6 %
     Extraction speed 5.0 X
     Track quality 100.0 %
     Test CRC DBBE3ACD
     Copy CRC DBBE3ACD
     Track not present in AccurateRip database
     Copy OK
Track  8
     Filename C:\Shannon Noll - A Million Suns - flac\08 - Living In Stereo.wav
     Peak level 93.4 %
     Extraction speed 5.2 X
     Track quality 100.0 %
     Test CRC 98671769
     Copy CRC 98671769
     Track not present in AccurateRip database
     Copy OK
Track  9
     Filename C:\Shannon Noll - A Million Suns - flac\09 - Path Of Gold.wav
     Pre-gap length  0:00:01.01
     Peak level 99.9 %
     Extraction speed 5.4 X
     Track quality 100.0 %
     Test CRC 4F9EDFAA
     Copy CRC 4F9EDFAA
     Track not present in AccurateRip database
     Copy OK
Track 10
     Filename C:\Shannon Noll - A Million Suns - flac\10 - Collide.wav
     Peak level 97.6 %
     Extraction speed 5.7 X
     Track quality 100.0 %
     Test CRC 0CD925F4
     Copy CRC 0CD925F4
     Track not present in AccurateRip database
     Copy OK
Track 11
     Filename C:\Shannon Noll - A Million Suns - flac\11 - Would It Be So Bad.wav
     Peak level 100.0 %
     Extraction speed 5.9 X
     Track quality 100.0 %
     Test CRC A4CD7C66
     Copy CRC A4CD7C66
     Track not present in AccurateRip database
     Copy OK
Track 12
     Filename C:\Shannon Noll - A Million Suns - flac\12 - It's A Man's Man's Man's World.wav
     Pre-gap length  0:00:01.81
     Peak level 99.3 %
     Extraction speed 5.9 X
     Track quality 100.0 %
     Test CRC C157E063
     Copy CRC C157E063
     Track not present in AccurateRip database
     Copy OK
None of the tracks are present in the AccurateRip database
No errors occurred
End of status report
==== Log checksum 5CABC5C6AA82A76C07D4240AAA863D7CFD5EA0F70F312E8F2C34C65F44E431F3 ====
Код:
REM GENRE Rock
REM DATE 2011
REM DISCID AC0A4D0C
REM COMMENT "ExactAudioCopy v1.0b3"
PERFORMER "Shannon Noll"
TITLE "A Million Suns"
FILE "01 - Switch Me On.wav" WAVE
  TRACK 01 AUDIO
    TITLE "Switch Me On"
    PERFORMER "Shannon Noll"
    INDEX 01 00:00:00
  TRACK 02 AUDIO
    TITLE "A Million Suns"
    PERFORMER "Shannon Noll"
    INDEX 00 03:26:57
FILE "02 - A Million Suns.wav" WAVE
    INDEX 01 00:00:00
  TRACK 03 AUDIO
    TITLE "My Place In The Line"
    PERFORMER "Shannon Noll"
    INDEX 00 03:12:01
FILE "03 - My Place In The Line.wav" WAVE
    INDEX 01 00:00:00
FILE "04 - Come Home.wav" WAVE
  TRACK 04 AUDIO
    TITLE "Come Home"
    PERFORMER "Shannon Noll"
    INDEX 01 00:00:00
FILE "05 - Rewind.wav" WAVE
  TRACK 05 AUDIO
    TITLE "Rewind"
    PERFORMER "Shannon Noll"
    INDEX 01 00:00:00
FILE "06 - 'Till We Say So.wav" WAVE
  TRACK 06 AUDIO
    TITLE "'Till We Say So"
    PERFORMER "Shannon Noll"
    INDEX 01 00:00:00
  TRACK 07 AUDIO
    TITLE "Long Way Home"
    PERFORMER "Shannon Noll"
    INDEX 00 03:46:13
FILE "07 - Long Way Home.wav" WAVE
    INDEX 01 00:00:00
FILE "08 - Living In Stereo.wav" WAVE
  TRACK 08 AUDIO
    TITLE "Living In Stereo"
    PERFORMER "Shannon Noll"
    INDEX 01 00:00:00
  TRACK 09 AUDIO
    TITLE "Path Of Gold"
    PERFORMER "Shannon Noll"
    INDEX 00 03:32:01
FILE "09 - Path Of Gold.wav" WAVE
    INDEX 01 00:00:00
FILE "10 - Collide.wav" WAVE
  TRACK 10 AUDIO
    TITLE "Collide"
    PERFORMER "Shannon Noll"
    INDEX 01 00:00:00
FILE "11 - Would It Be So Bad.wav" WAVE
  TRACK 11 AUDIO
    TITLE "Would It Be So Bad"
    PERFORMER "Shannon Noll"
    INDEX 01 00:00:00
  TRACK 12 AUDIO
    TITLE "It's A Man's Man's Man's World"
    PERFORMER "Shannon Noll"
    INDEX 00 03:55:39
FILE "12 - It's A Man's Man's Man's World.wav" WAVE
    INDEX 01 00:00:00
Код:
AUDIOCHECKER v2.0 beta (build 457) - by Dester - opdester@freemail.hu
~~~~~~~~~~~~~~~~~~~~~~~~~~~~~~~~~~
-=== DO NOT EDIT THIS FILE! ===-
Path: ...\2011 - A Million Suns
01 -=- 01 - Switch Me On.flac -=- CDDA (100%)
02 -=- 02 - A Million Suns.flac -=- CDDA (100%)
03 -=- 03 - My Place In The Line.flac -=- CDDA (100%)
04 -=- 04 - Come Home.flac -=- CDDA (100%)
05 -=- 05 - Rewind.flac -=- CDDA (99%)
06 -=- 06 - 'Till We Say So.flac -=- CDDA (100%)
07 -=- 07 - Long Way Home.flac -=- CDDA (99%)
08 -=- 08 - Living In Stereo.flac -=- CDDA (100%)
09 -=- 09 - Path Of Gold.flac -=- CDDA (100%)
10 -=- 10 - Collide.flac -=- CDDA (99%)
11 -=- 11 - Would It Be So Bad.flac -=- CDDA (100%)
12 -=- 12 - It's A Man's Man's Man's World.flac -=- CDDA (99%)
Summary 99,67% CDDA
79176500


Правила, инструкции, FAQ!!!
Торрент  Добавлен [26 мар 2019, 20:12] Скачать торрент Магнет ссылка
Скачать торрент
[ Размер 28.16 КБ / Просмотров 1 ]

Статус
Проверен 
 
Размер  333.68 МБ
Приватный: Нет (DHT включён)
.torrent скачан  0
 


     Отправить личное сообщение
   
Страница 1 из 1
Показать сообщения за:  Поле сортировки  
Начать новую тему Ответить на тему


Сейчас этот форум просматривают: нет зарегистрированных пользователей и гости: 0


Вы не можете начинать темы
Вы не можете отвечать на сообщения
Вы не можете редактировать свои сообщения
Вы не можете удалять свои сообщения
Вы не можете добавлять вложения

Перейти:  
cron
cron