Начать новую тему Ответить на тему
Статистика раздачи
Размер: 310.43 МБ | Добавлен: 26 мар 2019, 19:32 | Скачали: 0
Сидеров: 0  [0 байт/сек]    Личеров: 0  [0 байт/сек]
Пред. тема | След. тема 

Автор
Сообщение

СообщениеДобавлено: 26 мар 2019, 19:32 

Ответить с цитатой 

Scouting For Girls - Scouting For Girls
Жанр: pop-rock
Год выпуска диска: 2007
Производитель диска: UK
Аудио кодек: FLAC
Тип рипа: tracks
Битрейт аудио: lossless
Продолжительность: 39:10
Трэклист:
1. Scouting For Girls - Keep On Walking (3:35)
2. Scouting For Girls - She's So Lovely (3:44)
3. Scouting For Girls - It's Not About You (4:12)
4. Scouting For Girls - The Airplane Song (4:20)
5. Scouting For Girls - Heartbeat (2:56)
6. Scouting For Girls - Elvis Ain't Dead (3:50)
7. Scouting For Girls - I'm Not Over You (3:25)
8. Scouting For Girls - I Need A Holiday (3:21)
9. Scouting For Girls - The Mountains Of Navaho (3:21)
10. Scouting For Girls - James Bond (3:14)+Michaela Strachan You Broke My Heart (3:12)
Exact Audio Copy V0.99 prebeta 3 from 28. July 2007
EAC extraction logfile from 15. June 2008, 18:48
Scouting For Girls / Scouting For Girls
Used drive : LITE-ON DVDRW SHM-165H6S Adapter: 0 ID: 1
Read mode : Secure
Utilize accurate stream : Yes
Defeat audio cache : Yes
Make use of C2 pointers : No
Read offset correction : 6
Overread into Lead-In and Lead-Out : No
Fill up missing offset samples with silence : Yes
Delete leading and trailing silent blocks : No
Null samples used in CRC calculations : No
Used interface : Native Win32 interface for Win NT & 2000
Gap handling : Not detected, thus appended to previous track
Used output format : Internal WAV Routines
Sample format : 44.100 Hz; 16 Bit; Stereo
TOC of the extracted CD
Track | Start | Length | Start sector | End sector
---------------------------------------------------------
1 | 0:00.28 | 3:37.68 | 28 | 16370
2 | 3:38.21 | 3:43.61 | 16371 | 33156
3 | 7:22.07 | 4:12.23 | 33157 | 52079
4 | 11:34.30 | 4:20.45 | 52080 | 71624
5 | 15:55.00 | 2:55.68 | 71625 | 84817
6 | 18:50.68 | 3:49.67 | 84818 | 102059
7 | 22:40.60 | 3:24.72 | 102060 | 117431
8 | 26:05.57 | 3:21.39 | 117432 | 132545
9 | 29:27.21 | 3:21.10 | 132546 | 147630
10 | 32:48.31 | 6:59.40 | 147631 | 179095
Track 1
Filename E:\Music\Scouting For Girls\Scouting For Girls\Scouting For Girls - Scouting For Girls - 01. Keep On Walking.wav
Peak level 100.0 %
Track quality 100.0 %
Copy CRC 148E3623
Accurately ripped (confidence 7) [C9E06A1F]
Copy OK
Track 2
Filename E:\Music\Scouting For Girls\Scouting For Girls\Scouting For Girls - Scouting For Girls - 02. She's So Lovely.wav
Peak level 100.0 %
Track quality 100.0 %
Copy CRC C45A0392
Accurately ripped (confidence 7) [C3C593D4]
Copy OK
Track 3
Filename E:\Music\Scouting For Girls\Scouting For Girls\Scouting For Girls - Scouting For Girls - 03. It's Not About You.wav
Peak level 100.0 %
Track quality 100.0 %
Copy CRC D8D490A7
Accurately ripped (confidence 7) [834B9862]
Copy OK
Track 4
Filename E:\Music\Scouting For Girls\Scouting For Girls\Scouting For Girls - Scouting For Girls - 04. The Airplane Song.wav
Peak level 100.0 %
Track quality 100.0 %
Copy CRC 863BF453
Accurately ripped (confidence 7) [6EECDC6D]
Copy OK
Track 5
Filename E:\Music\Scouting For Girls\Scouting For Girls\Scouting For Girls - Scouting For Girls - 05. Heartbeat.wav
Peak level 100.0 %
Track quality 100.0 %
Copy CRC 27D70676
Accurately ripped (confidence 7) [2C807B16]
Copy OK
Track 6
Filename E:\Music\Scouting For Girls\Scouting For Girls\Scouting For Girls - Scouting For Girls - 06. Elvis Ain't Dead.wav
Peak level 100.0 %
Track quality 100.0 %
Copy CRC C13718A3
Accurately ripped (confidence 7) [20F8E125]
Copy OK
Track 7
Filename E:\Music\Scouting For Girls\Scouting For Girls\Scouting For Girls - Scouting For Girls - 07. I'm Not Over You.wav
Peak level 100.0 %
Track quality 99.8 %
Copy CRC 8709EC28
Accurately ripped (confidence 7) [B3F8ABE1]
Copy OK
Track 8
Filename E:\Music\Scouting For Girls\Scouting For Girls\Scouting For Girls - Scouting For Girls - 08. I Need A Holiday.wav
Peak level 100.0 %
Track quality 100.0 %
Copy CRC 2FD4E117
Accurately ripped (confidence 7) [95CE5F44]
Copy OK
Track 9
Filename E:\Music\Scouting For Girls\Scouting For Girls\Scouting For Girls - Scouting For Girls - 09. The Mountains Of Navaho.wav
Peak level 100.0 %
Track quality 99.8 %
Copy CRC 3541D9D5
Accurately ripped (confidence 7) [E0D03D09]
Copy OK
Track 10
Filename E:\Music\Scouting For Girls\Scouting For Girls\Scouting For Girls - Scouting For Girls - 10. James Bond.wav
Peak level 100.0 %
Track quality 100.0 %
Copy CRC 6FA107D2
Accurately ripped (confidence 7) [645C8776]
Copy OK
All tracks accurately ripped
No errors occurred
End of status report
Правила, инструкции, FAQ!!!
Торрент  Добавлен [26 мар 2019, 19:32] Скачать торрент Магнет ссылка
Скачать торрент
[ Размер 25.71 КБ / Просмотров 3 ]

Статус
Проверен 
 
Размер  310.43 МБ
Приватный: Нет (DHT включён)
.torrent скачан  0
 


     Отправить личное сообщение
   
Страница 1 из 1
Показать сообщения за:  Поле сортировки  
Начать новую тему Ответить на тему


Сейчас этот форум просматривают: нет зарегистрированных пользователей и гости: 0


Вы не можете начинать темы
Вы не можете отвечать на сообщения
Вы не можете редактировать свои сообщения
Вы не можете удалять свои сообщения
Вы не можете добавлять вложения

Перейти:  
cron