Начать новую тему Ответить на тему
Статистика раздачи
Размер: 315.66 МБ | Добавлен: 26 мар 2019, 18:52 | Скачали: 0
Сидеров: 0  [0 байт/сек]    Личеров: 0  [0 байт/сек]
Пред. тема | След. тема 

Автор
Сообщение

СообщениеДобавлено: 26 мар 2019, 18:52 

Ответить с цитатой 

Sandhy Sondoro / Vulnerability
Жанр: Pop Rock
Носитель: CD
Год издания: 2014
Издатель (лейбл): Best Beat Music
Страна исполнителя (группы): Indonesia
Аудиокодек: FLAC (*.flac)
Тип рипа: image+.cue
Битрейт аудио: lossless
Продолжительность: 00:47:19
Источник (релизер): CD
Наличие сканов в содержимом раздачи: нет
Треклист:
01 Kaulah
02 Ku Tak Mau Tergesa - gesa (Untuk Katakan Cinta)
03 For Aeshan
04 Still in Love
05 Dan Itu Yang Aku Cinta
06 She's The One I Love
07 Divine Intervention
08 Getting Old
09 The Heart is Weak
10 Dalam Pelukan Jiwa
11 God Bless You Mama
12 Air Di Bumi Kita
Код:
Exact Audio Copy V1.0 beta 3 from 29. August 2011
Отчёт EAC об извлечении, выполненном 23. ноября 2014, 15:22
Sandhy Sondoro / Vulnerability
Дисковод: PIONEER BD-RW   BDR-209D   Adapter: 0  ID: 0
Режим чтения                 : Достоверность
Использование точного потока : Да
Отключение кэша аудио        : Да
Использование указателей C2  : Нет
Коррекция смещения при чтении                     : 667
Способность читать области Lead-in и Lead-out     : Нет
Заполнение пропущенных сэмплов тишиной            : Да
Удаление блоков с тишиной в начале и конце        : Нет
При вычислениях CRC использовались нулевые сэмплы : Да
Интерфейс                                         : Встроенный Win32-интерфейс для Win NT/2000
Выходной формат          : Пользовательский кодировщик
Выбранный битрейт        : 128 kBit/s
Качество                 : Высокий
Добавление ID3-тега      : Нет
Утилита сжатия           : C:\Program Files (x86)\Exact Audio Copy\Flac\flac.exe
Дополнительные параметры : -V -8 -T "Date=%year%" -T "Genre=%genre%" %source%
TOC извлечённого CD
     Трек |   Старт  | Длительность | Начальный сектор | Конечный сектор
    ---------------------------------------------------------------------
       1  |  0:00.00 |    4:51.01   |           0      |      21825
       2  |  4:51.01 |    3:46.02   |       21826      |      38777
       3  |  8:37.03 |    3:33.03   |       38778      |      54755
       4  | 12:10.06 |    3:53.39   |       54756      |      72269
       5  | 16:03.45 |    4:37.39   |       72270      |      93083
       6  | 20:41.09 |    3:51.01   |       93084      |     110409
       7  | 24:32.10 |    3:45.39   |      110410      |     127323
       8  | 28:17.49 |    3:25.39   |      127324      |     142737
       9  | 31:43.13 |    4:08.02   |      142738      |     161339
      10  | 35:51.15 |    4:01.03   |      161340      |     179417
      11  | 39:52.18 |    3:17.03   |      179418      |     194195
      12  | 43:09.21 |    4:10.02   |      194196      |     212947
Характеристики диапазона извлечения и сообщения об ошибках
Выбранный диапазон
     Имя файла D:\Flac\Новая папка\Sandhy Sondoro - Vulnerability.wav
     Пиковый уровень 100.0 %
     Скорость извлечения 7.1 X
     Качество диапазона 99.9 %
     CRC теста 50D61FA8
     CRC копии 50D61FA8
     Копирование... OK
Ошибок не произошло
Конец отчёта
==== Контрольная сумма отчёта 6DA5D9AC89B22107CA49D99F94E4519331338CA661149237F3E229DF09605258 ====
Доп. информация: Диск пиратский, куплен в Китае. Качество CDDA. В отличие от предыдущей раздачи http://rutracker.org/forum/viewtopic.php?t=4826078 скачанной с indowebster.com, тут 12 треков и по звучанию и спектрам тоже есть отличия в лучшую сторону.
Рип исправлен, торрент перезалит.
Правила, инструкции, FAQ!!!
Торрент  Добавлен [26 мар 2019, 18:52] Скачать торрент Магнет ссылка
Скачать торрент
[ Размер 13.02 КБ / Просмотров 1 ]

Статус
Проверен 
 
Размер  315.66 МБ
Приватный: Нет (DHT включён)
.torrent скачан  0
 


     Отправить личное сообщение
   
Страница 1 из 1
Показать сообщения за:  Поле сортировки  
Начать новую тему Ответить на тему


Сейчас этот форум просматривают: нет зарегистрированных пользователей и гости: 0


Вы не можете начинать темы
Вы не можете отвечать на сообщения
Вы не можете редактировать свои сообщения
Вы не можете удалять свои сообщения
Вы не можете добавлять вложения

Перейти:  
cron