Начать новую тему Ответить на тему
Статистика раздачи
Размер: 275.07 МБ | Добавлен: 26 мар 2019, 20:49 | Скачали: 0
Сидеров: 0  [0 байт/сек]    Личеров: 0  [0 байт/сек]
Пред. тема | След. тема 

Автор
Сообщение

СообщениеДобавлено: 26 мар 2019, 20:49 

Ответить с цитатой 

Sad Café
Whatever It Takes (1989)
Жанр: Pop-Rock
Страна-производитель диска: Japan
Год издания диска: 1989
Издатель (лейбл): Teichiku Rec.
Номер по каталогу: 25DN-72
Страна: U.K.
Аудио кодек: FLAC (*.flac)
Тип рипа: image+.cue
Битрейт аудио: lossless
Продолжительность: 40 минут 51 секунда
Источник (релизер): собственный рип
Наличие сканов в содержимом раздачи: да
Треклист:
01. Whatever It Takes
02. So Cold
03. This Heart's On Fire
04. Take Me
05. Stay With Me Tonight
06. Blood On The Sand
07. Don't Give Up On Love
08. Universe
09. Don't Walk Out On Me (I Won't Leave)
10. Back To Zero
Код:
Exact Audio Copy V0.99 prebeta 5 from 4. May 2009
Отчёт EAC об извлечении, выполненном 10. декабря 2010, 18:14
Sad Cafe / Whatever It Takes
Дисковод: Optiarc DVD RW AD-5590A   Adapter: 3  ID: 0
Режим чтения                 : Достоверность
Использование точного потока : Да
Отключение кэша аудио        : Да
Использование указателей C2  : Нет
Коррекция смещения при чтении                     : 48
Способность читать области Lead-in и Lead-out     : Нет
Заполнение пропущенных сэмплов тишиной            : Да
Удаление блоков с тишиной в начале и конце        : Нет
При вычислениях CRC использовались нулевые сэмплы : Да
Интерфейс                                         : Установленный внешний ASPI-интерфейс
Выходной формат          : Пользовательский кодировщик
Выбранный битрейт        : 320 kBit/s
Качество                 : Высокий
Добавление ID3-тэга      : Нет
Утилита сжатия           : C:\Program Files\EAC\flac\flac.exe
Дополнительные параметры : -8 -V %s
TOC извлечённого CD
     Трек |   Старт  | Длительность | Начальный сектор | Конечный сектор
    ---------------------------------------------------------------------
       1  |  0:00.00 |    4:09.10   |           0      |      18684
       2  |  4:09.10 |    3:22.22   |       18685      |      33856
       3  |  7:31.32 |    4:17.10   |       33857      |      53141
       4  | 11:48.42 |    3:49.70   |       53142      |      70386
       5  | 15:38.37 |    3:50.23   |       70387      |      87659
       6  | 19:28.60 |    4:21.17   |       87660      |     107251
       7  | 23:50.02 |    4:13.50   |      107252      |     126276
       8  | 28:03.52 |    3:43.08   |      126277      |     143009
       9  | 31:46.60 |    4:40.22   |      143010      |     164031
      10  | 36:27.07 |    4:24.30   |      164032      |     183861
Характеристики диапазона извлечения и сообщения об ошибках
Выбранный диапазон
     Имя файла G:\User Manual 3Q 2.5\My Music\Sad Cafe - Whatever It Takes 1989\Sad Cafe - Whatever It Takes.wav
     Пиковый уровень 100.0 %
     Качество диапазона 100.0 %
     CRC копии C42BAA27
     Копирование... OK
Ошибок не произошло
AccurateRip: сводка
Трек  1  нет в базе данных
Трек  2  нет в базе данных
Трек  3  нет в базе данных
Трек  4  нет в базе данных
Трек  5  нет в базе данных
Трек  6  нет в базе данных
Трек  7  нет в базе данных
Трек  8  нет в базе данных
Трек  9  нет в базе данных
Трек 10  нет в базе данных
Ни одного трека нет в базе AccurateRip
Конец отчёта
Код:
[img]http://i13.fastpic.ru/big/2010/1210/fd/e223bfa3366b2748327566f0d28bcdfd.jpg[/img]
Код:
[imgright]http://i35.fastpic.ru/big/2012/0407/d9/c0ea0e0db0efd7bf7ffb32c66441efd9.jpg[/imgright][b]Paul Young[/b] - lead & background vocals
[b]Ian Wilson[/b] - guitars, background vocals
[b]Mike Hehir[/b] - guitars
[b]Des Tong[/b] - bass
[b]Steve Pigott[/b] - keyboards
[b]Paul Burgess[/b] - drums
[b]Lenni[/b] - sax
[b]Alistair Gordon[/b] - background vocals
Код:
[imgright]http://i33.fastpic.ru/big/2012/0407/09/1d7ea721e15438a86c17786963347109.jpg[/imgright][color=red][url=http://rutracker.org/viewtopic.php?t=3046692]1977 - Fanx Ta-Ra[/url][/color]
[color=red][url=http://rutracker.org/viewtopic.php?t=3046692]1978 - Misplaced Ideals[/url][/color]
[color=red][url=http://rutracker.org/viewtopic.php?t=2775659]1979 - Facades 1979[/url][/color]
[color=red][url=http://rutracker.org/viewtopic.php?t=2775659]1980 - Sad Café[/url][/color]
[color=red][url=http://rutracker.org/viewtopic.php?t=3494472]1981 - Olé[/url][/color]
[color=red][url=http://rutracker.org/viewtopic.php?t=3278662]1985 - Politics Of Existing[/url][/color]
[color=red][url=http://rutracker.org/viewtopic.php?t=3308733]1989 - Whatever It Takes[/url][/color]
[color=red][url=http://rutracker.org/viewtopic.php?t=4007482]2001 - Anthology (compilation)[/url][/color]
Правила, инструкции, FAQ!!!
Торрент  Добавлен [26 мар 2019, 20:49] Скачать торрент Магнет ссылка
Скачать торрент
[ Размер 11.87 КБ / Просмотров 0 ]

Статус
Проверен 
 
Размер  275.07 МБ
Приватный: Нет (DHT включён)
.torrent скачан  0
 


     Отправить личное сообщение
   
Страница 1 из 1
Показать сообщения за:  Поле сортировки  
Начать новую тему Ответить на тему


Сейчас этот форум просматривают: нет зарегистрированных пользователей и гости: 0


Вы не можете начинать темы
Вы не можете отвечать на сообщения
Вы не можете редактировать свои сообщения
Вы не можете удалять свои сообщения
Вы не можете добавлять вложения

Перейти:  
cron