Начать новую тему Ответить на тему
Статистика раздачи
Размер: 480.05 МБ | Добавлен: 26 мар 2019, 19:32 | Скачали: 0
Сидеров: 0  [0 байт/сек]    Личеров: 0  [0 байт/сек]
Пред. тема | След. тема 

Автор
Сообщение

СообщениеДобавлено: 26 мар 2019, 19:32 

Ответить с цитатой 

Sad Café / The Masters
Жанр: Pop-Rock
Носитель: CD
Страна-производитель диска (релиза): UK
Год издания: 1997
Издатель (лейбл): Eagle Records ‎
Номер по каталогу: EAB CD 004
Страна исполнителя (группы): UK
Аудиокодек: FLAC (*.flac)
Тип рипа: tracks+.cue
Битрейт аудио: lossless
Продолжительность: 1:18:15
Источник (релизер): сеть
Наличие сканов в содержимом раздачи: нет
Треклист:
1 Every Day Hurts 4:07
2 Strange Little Girl 5:06
3 My Oh My 3:57
4 Nothing Left Toulouse 4:36
5 La Di Da 5:04
6 I'm In Love Again 4:43
7 Black Rose 4:38
8 Hungry Eyes 5:29
9 Restless 4:40
10 On With The Show 5:12
11 Emptiness 3:59
12 Take Me To The Future 4:06
13 Angel 3:48
14 Let Love Speak For Itself 6:10
15 Losin' You 3:50
16 Dreaming 4:13
17 I Believe (Love Will Survive) 4:31
Код:
X Lossless Decoder version 20170729 (150.3)
XLD extraction logfile from 2018-05-02 20:13:33 +1000
Sad Caf├й / The Masters
Used drive : MATSHITA BD-MLT UJ240AS (revision 1.00)
Media type : Pressed CD
Ripper mode             : XLD Secure Ripper
Disable audio cache     : OK for the drive with a cache less than 1375KiB
Make use of C2 pointers : NO
Read offset correction  : 103
Max retry count         : 20
Gap status              : Analyzed, Appended (except HTOA)
TOC of the extracted CD
     Track |   Start  |  Length  | Start sector | End sector
    ---------------------------------------------------------
        1  | 00:00:00 | 04:07:05 |         0    |    18529
        2  | 04:07:05 | 05:06:22 |     18530    |    41501
        3  | 09:13:27 | 03:57:53 |     41502    |    59329
        4  | 13:11:05 | 04:36:10 |     59330    |    80039
        5  | 17:47:15 | 05:04:22 |     80040    |   102861
        6  | 22:51:37 | 04:43:25 |    102862    |   124111
        7  | 27:34:62 | 04:38:10 |    124112    |   144971
        8  | 32:12:72 | 05:29:03 |    144972    |   169649
        9  | 37:42:00 | 04:40:35 |    169650    |   190684
       10  | 42:22:35 | 05:12:57 |    190685    |   214141
       11  | 47:35:17 | 03:59:35 |    214142    |   232101
       12  | 51:34:52 | 04:06:15 |    232102    |   250566
       13  | 55:40:67 | 03:48:13 |    250567    |   267679
       14  | 59:29:05 | 06:10:27 |    267680    |   295456
       15  | 65:39:32 | 03:50:60 |    295457    |   312766
       16  | 69:30:17 | 04:13:38 |    312767    |   331779
       17  | 73:43:55 | 04:31:07 |    331780    |   352111
AccurateRip Summary (DiscID: 0030a642-02690b47-04125611)
    Track 01 : OK (v2, confidence 3/3)
    Track 02 : OK (v2, confidence 3/3)
    Track 03 : OK (v2, confidence 3/3)
    Track 04 : OK (v2, confidence 3/3)
    Track 05 : OK (v2, confidence 3/3)
    Track 06 : OK (v2, confidence 3/3)
    Track 07 : OK (v2, confidence 3/3)
    Track 08 : OK (v2, confidence 3/3)
    Track 09 : OK (v2, confidence 3/3)
    Track 10 : OK (v2, confidence 2/2)
    Track 11 : OK (v2, confidence 2/2)
    Track 12 : OK (v2, confidence 3/3)
    Track 13 : OK (v2, confidence 3/3)
    Track 14 : OK (v2, confidence 3/3)
    Track 15 : OK (v2, confidence 3/3)
    Track 16 : OK (v2, confidence 3/3)
    Track 17 : OK (v2, confidence 3/3)
        ->All tracks accurately ripped.
All Tracks
    Album gain               : -2.62 dB
    Peak                     : 0.990082
    Statistics
        Read error                           : 0
        Jitter error (maybe fixed)           : 0
        Retry sector count                   : 1
        Damaged sector count                 : 0
Track 01
    Filename : /Users/david/Music/XLD Conversions/Sad Caf├й - The Masters (1997) [FLAC]/01 Every Day Hurts.flac
    Pre-gap length : 00:02:00
    Track gain               : -3.04 dB
    Peak                     : 0.963104
    CRC32 hash (test run)    : C33CFD26
    CRC32 hash               : C33CFD26
    CRC32 hash (skip zero)   : 226B242A
    AccurateRip v1 signature : 21665CE0
    AccurateRip v2 signature : 12C2F343
        ->Accurately ripped (v2, confidence 3/3)
    Statistics
        Read error                           : 0
        Jitter error (maybe fixed)           : 0
        Retry sector count                   : 0
        Damaged sector count                 : 0
Track 02
    Filename : /Users/david/Music/XLD Conversions/Sad Caf├й - The Masters (1997) [FLAC]/02 Strange Little Girl.flac
    Pre-gap length : 00:02:55
    Track gain               : -2.21 dB
    Peak                     : 0.988525
    CRC32 hash (test run)    : 630CF20D
    CRC32 hash               : 630CF20D
    CRC32 hash (skip zero)   : E26B9E5D
    AccurateRip v1 signature : 6154974A
    AccurateRip v2 signature : 66503918
        ->Accurately ripped (v2, confidence 3/3)
    Statistics
        Read error                           : 0
        Jitter error (maybe fixed)           : 0
        Retry sector count                   : 0
        Damaged sector count                 : 0
Track 03
    Filename : /Users/david/Music/XLD Conversions/Sad Caf├й - The Masters (1997) [FLAC]/03 My Oh My.flac
    Pre-gap length : 00:02:55
    Track gain               : -2.14 dB
    Peak                     : 0.936066
    CRC32 hash (test run)    : 3AA242D0
    CRC32 hash               : 3AA242D0
    CRC32 hash (skip zero)   : 075C5FDA
    AccurateRip v1 signature : 255B18DF
    AccurateRip v2 signature : 64A39523
        ->Accurately ripped (v2, confidence 3/3)
    Statistics
        Read error                           : 0
        Jitter error (maybe fixed)           : 0
        Retry sector count                   : 1
        Damaged sector count                 : 0
Track 04
    Filename : /Users/david/Music/XLD Conversions/Sad Caf├й - The Masters (1997) [FLAC]/04 Nothing Left Toulouse.flac
    Pre-gap length : 00:02:55
    Track gain               : -2.18 dB
    Peak                     : 0.866119
    CRC32 hash (test run)    : 0A9694BF
    CRC32 hash               : 0A9694BF
    CRC32 hash (skip zero)   : 5C6C8847
    AccurateRip v1 signature : 0C1DBA92
    AccurateRip v2 signature : ADA5DD5F
        ->Accurately ripped (v2, confidence 3/3)
    Statistics
        Read error                           : 0
        Jitter error (maybe fixed)           : 0
        Retry sector count                   : 0
        Damaged sector count                 : 0
Track 05
    Filename : /Users/david/Music/XLD Conversions/Sad Caf├й - The Masters (1997) [FLAC]/05 La Di La.flac
    Pre-gap length : 00:02:55
    Track gain               : -0.89 dB
    Peak                     : 0.990082
    CRC32 hash (test run)    : 9DAD00E5
    CRC32 hash               : 9DAD00E5
    CRC32 hash (skip zero)   : E90DB568
    AccurateRip v1 signature : A76BF259
    AccurateRip v2 signature : FA8F77BB
        ->Accurately ripped (v2, confidence 3/3)
    Statistics
        Read error                           : 0
        Jitter error (maybe fixed)           : 0
        Retry sector count                   : 0
        Damaged sector count                 : 0
Track 06
    Filename : /Users/david/Music/XLD Conversions/Sad Caf├й - The Masters (1997) [FLAC]/06 I'm In Love Again.flac
    Pre-gap length : 00:02:55
    Track gain               : -0.84 dB
    Peak                     : 0.924316
    CRC32 hash (test run)    : 1FA1172A
    CRC32 hash               : 1FA1172A
    CRC32 hash (skip zero)   : FBA4DC0D
    AccurateRip v1 signature : A86C83B2
    AccurateRip v2 signature : 7CB54424
        ->Accurately ripped (v2, confidence 3/3)
    Statistics
        Read error                           : 0
        Jitter error (maybe fixed)           : 0
        Retry sector count                   : 0
        Damaged sector count                 : 0
Track 07
    Filename : /Users/david/Music/XLD Conversions/Sad Caf├й - The Masters (1997) [FLAC]/07 Black Rose.flac
    Pre-gap length : 00:02:55
    Track gain               : -4.05 dB
    Peak                     : 0.915283
    CRC32 hash (test run)    : 30AF3EAB
    CRC32 hash               : 30AF3EAB
    CRC32 hash (skip zero)   : F53FCDBD
    AccurateRip v1 signature : 0085A71E
    AccurateRip v2 signature : 714D828D
        ->Accurately ripped (v2, confidence 3/3)
    Statistics
        Read error                           : 0
        Jitter error (maybe fixed)           : 0
        Retry sector count                   : 0
        Damaged sector count                 : 0
Track 08
    Filename : /Users/david/Music/XLD Conversions/Sad Caf├й - The Masters (1997) [FLAC]/08 Hungry Eyes.flac
    Pre-gap length : 00:02:55
    Track gain               : -2.88 dB
    Peak                     : 0.949219
    CRC32 hash (test run)    : 535476D2
    CRC32 hash               : 535476D2
    CRC32 hash (skip zero)   : B934C71B
    AccurateRip v1 signature : F6FFAD3B
    AccurateRip v2 signature : 7C279E16
        ->Accurately ripped (v2, confidence 3/3)
    Statistics
        Read error                           : 0
        Jitter error (maybe fixed)           : 0
        Retry sector count                   : 0
        Damaged sector count                 : 0
Track 09
    Filename : /Users/david/Music/XLD Conversions/Sad Caf├й - The Masters (1997) [FLAC]/09 Restless.flac
    Pre-gap length : 00:02:55
    Track gain               : -1.19 dB
    Peak                     : 0.988556
    CRC32 hash (test run)    : D33B2573
    CRC32 hash               : D33B2573
    CRC32 hash (skip zero)   : 359BBBF4
    AccurateRip v1 signature : 62F7E956
    AccurateRip v2 signature : CCC0A0BA
        ->Accurately ripped (v2, confidence 3/3)
    Statistics
        Read error                           : 0
        Jitter error (maybe fixed)           : 0
        Retry sector count                   : 0
        Damaged sector count                 : 0
Track 10
    Filename : /Users/david/Music/XLD Conversions/Sad Caf├й - The Masters (1997) [FLAC]/10 On With The Show.flac
    Pre-gap length : 00:02:58
    Track gain               : -3.68 dB
    Peak                     : 0.984436
    CRC32 hash (test run)    : 85DB72E0
    CRC32 hash               : 85DB72E0
    CRC32 hash (skip zero)   : AA93858B
    AccurateRip v1 signature : 36DD5D9B
    AccurateRip v2 signature : 0AEB06CC
        ->Accurately ripped (v2, confidence 2/2)
    Statistics
        Read error                           : 0
        Jitter error (maybe fixed)           : 0
        Retry sector count                   : 0
        Damaged sector count                 : 0
Track 11
    Filename : /Users/david/Music/XLD Conversions/Sad Caf├й - The Masters (1997) [FLAC]/11 Emptyness.flac
    Pre-gap length : 00:02:55
    Track gain               : -2.06 dB
    Peak                     : 0.970886
    CRC32 hash (test run)    : 73F77E67
    CRC32 hash               : 73F77E67
    CRC32 hash (skip zero)   : 124BD736
    AccurateRip v1 signature : FC5A3FDC
    AccurateRip v2 signature : C224A71D
        ->Accurately ripped (v2, confidence 2/2)
    Statistics
        Read error                           : 0
        Jitter error (maybe fixed)           : 0
        Retry sector count                   : 0
        Damaged sector count                 : 0
Track 12
    Filename : /Users/david/Music/XLD Conversions/Sad Caf├й - The Masters (1997) [FLAC]/12 Take Me To The Future.flac
    Pre-gap length : 00:02:55
    Track gain               : -1.88 dB
    Peak                     : 0.776154
    CRC32 hash (test run)    : FA24B01F
    CRC32 hash               : FA24B01F
    CRC32 hash (skip zero)   : 6A8B03B1
    AccurateRip v1 signature : B768C5B8
    AccurateRip v2 signature : D300BED8
        ->Accurately ripped (v2, confidence 3/3)
    Statistics
        Read error                           : 0
        Jitter error (maybe fixed)           : 0
        Retry sector count                   : 0
        Damaged sector count                 : 0
Track 13
    Filename : /Users/david/Music/XLD Conversions/Sad Caf├й - The Masters (1997) [FLAC]/13 Angel.flac
    Pre-gap length : 00:02:55
    Track gain               : -1.89 dB
    Peak                     : 0.909668
    CRC32 hash (test run)    : 5B069D47
    CRC32 hash               : 5B069D47
    CRC32 hash (skip zero)   : CBDBD931
    AccurateRip v1 signature : 34CEBFE8
    AccurateRip v2 signature : 7068782D
        ->Accurately ripped (v2, confidence 3/3)
    Statistics
        Read error                           : 0
        Jitter error (maybe fixed)           : 0
        Retry sector count                   : 0
        Damaged sector count                 : 0
Track 14
    Filename : /Users/david/Music/XLD Conversions/Sad Caf├й - The Masters (1997) [FLAC]/14 Let Love Speak For Itself.flac
    Pre-gap length : 00:02:55
    Track gain               : -2.35 dB
    Peak                     : 0.961121
    CRC32 hash (test run)    : FAFB46CE
    CRC32 hash               : FAFB46CE
    CRC32 hash (skip zero)   : 7A302D63
    AccurateRip v1 signature : 52851AA7
    AccurateRip v2 signature : 39F6480A
        ->Accurately ripped (v2, confidence 3/3)
    Statistics
        Read error                           : 0
        Jitter error (maybe fixed)           : 0
        Retry sector count                   : 0
        Damaged sector count                 : 0
Track 15
    Filename : /Users/david/Music/XLD Conversions/Sad Caf├й - The Masters (1997) [FLAC]/15 Losin' You.flac
    Pre-gap length : 00:02:55
    Track gain               : -1.67 dB
    Peak                     : 0.882721
    CRC32 hash (test run)    : 77FB8A62
    CRC32 hash               : 77FB8A62
    CRC32 hash (skip zero)   : F9A12BCA
    AccurateRip v1 signature : 727A8893
    AccurateRip v2 signature : 82C2630C
        ->Accurately ripped (v2, confidence 3/3)
    Statistics
        Read error                           : 0
        Jitter error (maybe fixed)           : 0
        Retry sector count                   : 0
        Damaged sector count                 : 0
Track 16
    Filename : /Users/david/Music/XLD Conversions/Sad Caf├й - The Masters (1997) [FLAC]/16 Dreaming.flac
    Pre-gap length : 00:02:55
    Track gain               : 0.09 dB
    Peak                     : 0.958435
    CRC32 hash (test run)    : 36154E08
    CRC32 hash               : 36154E08
    CRC32 hash (skip zero)   : 8A5AA9AA
    AccurateRip v1 signature : F8996916
    AccurateRip v2 signature : 8C889E6E
        ->Accurately ripped (v2, confidence 3/3)
    Statistics
        Read error                           : 0
        Jitter error (maybe fixed)           : 0
        Retry sector count                   : 0
        Damaged sector count                 : 0
Track 17
    Filename : /Users/david/Music/XLD Conversions/Sad Caf├й - The Masters (1997) [FLAC]/17 I Believe(Love Will Survive).flac
    Pre-gap length : 00:02:55
    Track gain               : -3.17 dB
    Peak                     : 0.988525
    CRC32 hash (test run)    : B9B25B12
    CRC32 hash               : B9B25B12
    CRC32 hash (skip zero)   : 315BE716
    AccurateRip v1 signature : B2AF8A97
    AccurateRip v2 signature : C2D8351C
        ->Accurately ripped (v2, confidence 3/3)
    Statistics
        Read error                           : 0
        Jitter error (maybe fixed)           : 0
        Retry sector count                   : 0
        Damaged sector count                 : 0
No errors occurred
End of status report
-----BEGIN XLD SIGNATURE-----
.7eQdOEZ_RwPrIz69hYEM95ZVu4Dd0YP2N69S_bqkp1zwjD7xlJaUA0zB5ZPgaMD6S.GcevTcq2Is2uVtZ.ne7opv7pYIy5D0dIqBnW
-----END XLD SIGNATURE-----
Код:
TITLE "The Masters"
PERFORMER "Sad Caf├й"
REM GENRE "Rock"
REM DATE "1997"
REM DISCID 04125611
REM REPLAYGAIN_ALBUM_GAIN -2.62 dB
REM REPLAYGAIN_ALBUM_PEAK 0.990082
FILE "01 Every Day Hurts.flac" WAVE
  TRACK 01 AUDIO
    TITLE "Every Day Hurts"
    PERFORMER "Sad Caf├й"
    REM COMMENT "XLD Version 20170729 (150.3)"
    REM REPLAYGAIN_TRACK_GAIN -3.04 dB
    REM REPLAYGAIN_TRACK_PEAK 0.963104
    INDEX 01 00:00:00
  TRACK 02 AUDIO
    TITLE "Strange Little Girl"
    PERFORMER "Sad Caf├й"
    REM COMMENT "XLD Version 20170729 (150.3)"
    REM REPLAYGAIN_TRACK_GAIN -2.21 dB
    REM REPLAYGAIN_TRACK_PEAK 0.988525
    INDEX 00 04:04:25
FILE "02 Strange Little Girl.flac" WAVE
    INDEX 01 00:00:00
  TRACK 03 AUDIO
    TITLE "My Oh My"
    PERFORMER "Sad Caf├й"
    REM COMMENT "XLD Version 20170729 (150.3)"
    REM REPLAYGAIN_TRACK_GAIN -2.14 dB
    REM REPLAYGAIN_TRACK_PEAK 0.936066
    INDEX 00 05:03:42
FILE "03 My Oh My.flac" WAVE
    INDEX 01 00:00:00
  TRACK 04 AUDIO
    TITLE "Nothing Left Toulouse"
    PERFORMER "Sad Caf├й"
    REM COMMENT "XLD Version 20170729 (150.3)"
    REM REPLAYGAIN_TRACK_GAIN -2.18 dB
    REM REPLAYGAIN_TRACK_PEAK 0.866119
    INDEX 00 03:54:73
FILE "04 Nothing Left Toulouse.flac" WAVE
    INDEX 01 00:00:00
  TRACK 05 AUDIO
    TITLE "La Di La"
    PERFORMER "Sad Caf├й"
    REM COMMENT "XLD Version 20170729 (150.3)"
    REM REPLAYGAIN_TRACK_GAIN -0.89 dB
    REM REPLAYGAIN_TRACK_PEAK 0.990082
    INDEX 00 04:33:30
FILE "05 La Di La.flac" WAVE
    INDEX 01 00:00:00
  TRACK 06 AUDIO
    TITLE "I'm In Love Again"
    PERFORMER "Sad Caf├й"
    REM COMMENT "XLD Version 20170729 (150.3)"
    REM REPLAYGAIN_TRACK_GAIN -0.84 dB
    REM REPLAYGAIN_TRACK_PEAK 0.924316
    INDEX 00 05:01:42
FILE "06 I'm In Love Again.flac" WAVE
    INDEX 01 00:00:00
  TRACK 07 AUDIO
    TITLE "Black Rose"
    PERFORMER "Sad Caf├й"
    REM COMMENT "XLD Version 20170729 (150.3)"
    REM REPLAYGAIN_TRACK_GAIN -4.05 dB
    REM REPLAYGAIN_TRACK_PEAK 0.915283
    INDEX 00 04:40:45
FILE "07 Black Rose.flac" WAVE
    INDEX 01 00:00:00
  TRACK 08 AUDIO
    TITLE "Hungry Eyes"
    PERFORMER "Sad Caf├й"
    REM COMMENT "XLD Version 20170729 (150.3)"
    REM REPLAYGAIN_TRACK_GAIN -2.88 dB
    REM REPLAYGAIN_TRACK_PEAK 0.949219
    INDEX 00 04:35:30
FILE "08 Hungry Eyes.flac" WAVE
    INDEX 01 00:00:00
  TRACK 09 AUDIO
    TITLE "Restless"
    PERFORMER "Sad Caf├й"
    REM COMMENT "XLD Version 20170729 (150.3)"
    REM REPLAYGAIN_TRACK_GAIN -1.19 dB
    REM REPLAYGAIN_TRACK_PEAK 0.988556
    INDEX 00 05:26:23
FILE "09 Restless.flac" WAVE
    INDEX 01 00:00:00
  TRACK 10 AUDIO
    TITLE "On With The Show"
    PERFORMER "Sad Caf├й"
    REM COMMENT "XLD Version 20170729 (150.3)"
    REM REPLAYGAIN_TRACK_GAIN -3.68 dB
    REM REPLAYGAIN_TRACK_PEAK 0.984436
    INDEX 00 04:37:52
FILE "10 On With The Show.flac" WAVE
    INDEX 01 00:00:00
  TRACK 11 AUDIO
    TITLE "Emptyness"
    PERFORMER "Sad Caf├й"
    REM COMMENT "XLD Version 20170729 (150.3)"
    REM REPLAYGAIN_TRACK_GAIN -2.06 dB
    REM REPLAYGAIN_TRACK_PEAK 0.970886
    INDEX 00 05:10:02
FILE "11 Emptyness.flac" WAVE
    INDEX 01 00:00:00
  TRACK 12 AUDIO
    TITLE "Take Me To The Future"
    PERFORMER "Sad Caf├й"
    REM COMMENT "XLD Version 20170729 (150.3)"
    REM REPLAYGAIN_TRACK_GAIN -1.88 dB
    REM REPLAYGAIN_TRACK_PEAK 0.776154
    INDEX 00 03:56:55
FILE "12 Take Me To The Future.flac" WAVE
    INDEX 01 00:00:00
  TRACK 13 AUDIO
    TITLE "Angel"
    PERFORMER "Sad Caf├й"
    REM COMMENT "XLD Version 20170729 (150.3)"
    REM REPLAYGAIN_TRACK_GAIN -1.89 dB
    REM REPLAYGAIN_TRACK_PEAK 0.909668
    INDEX 00 04:03:35
FILE "13 Angel.flac" WAVE
    INDEX 01 00:00:00
  TRACK 14 AUDIO
    TITLE "Let Love Speak For Itself"
    PERFORMER "Sad Caf├й"
    REM COMMENT "XLD Version 20170729 (150.3)"
    REM REPLAYGAIN_TRACK_GAIN -2.35 dB
    REM REPLAYGAIN_TRACK_PEAK 0.961121
    INDEX 00 03:45:33
FILE "14 Let Love Speak For Itself.flac" WAVE
    INDEX 01 00:00:00
  TRACK 15 AUDIO
    TITLE "Losin' You"
    PERFORMER "Sad Caf├й"
    REM COMMENT "XLD Version 20170729 (150.3)"
    REM REPLAYGAIN_TRACK_GAIN -1.67 dB
    REM REPLAYGAIN_TRACK_PEAK 0.882721
    INDEX 00 06:07:47
FILE "15 Losin' You.flac" WAVE
    INDEX 01 00:00:00
  TRACK 16 AUDIO
    TITLE "Dreaming"
    PERFORMER "Sad Caf├й"
    REM COMMENT "XLD Version 20170729 (150.3)"
    REM REPLAYGAIN_TRACK_GAIN 0.09 dB
    REM REPLAYGAIN_TRACK_PEAK 0.958435
    INDEX 00 03:48:05
FILE "16 Dreaming.flac" WAVE
    INDEX 01 00:00:00
  TRACK 17 AUDIO
    TITLE "I Believe(Love Will Survive)"
    PERFORMER "Sad Caf├й"
    REM COMMENT "XLD Version 20170729 (150.3)"
    REM REPLAYGAIN_TRACK_GAIN -3.17 dB
    REM REPLAYGAIN_TRACK_PEAK 0.988525
    INDEX 00 04:10:58
FILE "17 I Believe(Love Will Survive).flac" WAVE
    INDEX 01 00:00:00
Код:
AUDIOCHECKER v2.0 beta (build 457) - by Dester - opdester@freemail.hu
~~~~~~~~~~~~~~~~~~~~~~~~~~~~~~~~~~
Started at: среда, 09. 05. 2018. - 22:59.17
17 files found
01 -===- C:\Sad Cafe - The Masters (1997) [FLAC]\01 Every Day Hurts.flac
  Extracted successfully
  Conclusion: this track is CDDA with probability 100%
  Tempfile successfully deleted.
02 -===- C:\Sad Cafe - The Masters (1997) [FLAC]\02 Strange Little Girl.flac
  Extracted successfully
  Conclusion: this track is CDDA with probability 100%
  Tempfile successfully deleted.
03 -===- C:\Sad Cafe - The Masters (1997) [FLAC]\03 My Oh My.flac
  Extracted successfully
  Conclusion: this track is CDDA with probability 100%
  Tempfile successfully deleted.
04 -===- C:\Sad Cafe - The Masters (1997) [FLAC]\04 Nothing Left Toulouse.flac
  Extracted successfully
  Conclusion: this track is CDDA with probability 100%
  Tempfile successfully deleted.
05 -===- C:\Sad Cafe - The Masters (1997) [FLAC]\05 La Di La.flac
  Extracted successfully
  Conclusion: this track is CDDA with probability 100%
  Tempfile successfully deleted.
06 -===- C:\Sad Cafe - The Masters (1997) [FLAC]\06 I'm In Love Again.flac
  Extracted successfully
  Conclusion: this track is CDDA with probability 100%
  Tempfile successfully deleted.
07 -===- C:\Sad Cafe - The Masters (1997) [FLAC]\07 Black Rose.flac
  Extracted successfully
  Conclusion: this track is CDDA with probability 99%
  Tempfile successfully deleted.
08 -===- C:\Sad Cafe - The Masters (1997) [FLAC]\08 Hungry Eyes.flac
  Extracted successfully
  Conclusion: this track is CDDA with probability 100%
  Tempfile successfully deleted.
09 -===- C:\Sad Cafe - The Masters (1997) [FLAC]\09 Restless.flac
  Extracted successfully
  Conclusion: this track is CDDA with probability 100%
  Tempfile successfully deleted.
10 -===- C:\Sad Cafe - The Masters (1997) [FLAC]\10 On With The Show.flac
  Extracted successfully
  Conclusion: this track is CDDA with probability 100%
  Tempfile successfully deleted.
11 -===- C:\Sad Cafe - The Masters (1997) [FLAC]\11 Emptyness.flac
  Extracted successfully
  Conclusion: this track is CDDA with probability 100%
  Tempfile successfully deleted.
12 -===- C:\Sad Cafe - The Masters (1997) [FLAC]\12 Take Me To The Future.flac
  Extracted successfully
  Conclusion: this track is CDDA with probability 100%
  Tempfile successfully deleted.
13 -===- C:\Sad Cafe - The Masters (1997) [FLAC]\13 Angel.flac
  Extracted successfully
  Conclusion: this track is MPEG with probability 95%
  Tempfile successfully deleted.
14 -===- C:\Sad Cafe - The Masters (1997) [FLAC]\14 Let Love Speak For Itself.flac
  Extracted successfully
  Conclusion: this track is CDDA with probability 100%
  Tempfile successfully deleted.
15 -===- C:\Sad Cafe - The Masters (1997) [FLAC]\15 Losin' You.flac
  Extracted successfully
  Conclusion: this track is CDDA with probability 100%
  Tempfile successfully deleted.
16 -===- C:\Sad Cafe - The Masters (1997) [FLAC]\16 Dreaming.flac
  Extracted successfully
  Conclusion: this track is CDDA with probability 100%
  Tempfile successfully deleted.
17 -===- C:\Sad Cafe - The Masters (1997) [FLAC]\17 I Believe(Love Will Survive).flac
  Extracted successfully
  Conclusion: this track is CDDA with probability 100%
  Tempfile successfully deleted.
Finished at: среда, 09. 05. 2018. - 23:10.39 (operation time: 0:11.22)
English rock band from Manchester formed in 1976. With four top forty UK hits, they achieved popularity in the late 1970's.
Правила, инструкции, FAQ!!!
Торрент  Добавлен [26 мар 2019, 19:32] Скачать торрент Магнет ссылка
Скачать торрент
[ Размер 38.91 КБ / Просмотров 1 ]

Статус
Проверен 
 
Размер  480.05 МБ
Приватный: Нет (DHT включён)
.torrent скачан  0
 


     Отправить личное сообщение
   
Страница 1 из 1
Показать сообщения за:  Поле сортировки  
Начать новую тему Ответить на тему


Сейчас этот форум просматривают: нет зарегистрированных пользователей и гости: 0


Вы не можете начинать темы
Вы не можете отвечать на сообщения
Вы не можете редактировать свои сообщения
Вы не можете удалять свои сообщения
Вы не можете добавлять вложения

Перейти:  
cron