Начать новую тему Ответить на тему
Статистика раздачи
Размер: 310.75 МБ | Добавлен: 21 авг 2020, 20:23 | Скачали: 0
Сидеров: 1  [0 байт/сек]    Личеров: 0  [0 байт/сек]
Пред. тема | След. тема 

Автор
Сообщение

СообщениеДобавлено: 21 авг 2020, 20:23 

Ответить с цитатой 

Rufus Wainwright / Unfollow the Rules
#777Жанр: Pop Rock
Носитель: CD
Страна-производитель диска (релиза): US
Год издания: 2020
Издатель (лейбл): BMG ‎
Номер по каталогу: 538512612
Страна исполнителя (группы): US
Аудиокодек: FLAC (*.flac)
Тип рипа: tracks+.cue
Продолжительность: 00:51:31
Источник: интернет (RED)
Наличие сканов в содержимом раздачи: нет
Треклист:
01. Trouble In Paradise (03:05)
02. Damsel In Distress (04:42)
03. Unfollow the Rules (06:44)
04. You Ain't Big (02:35)
05. Romantical Man (05:26)
06. Peaceful Afternoon (04:16)
07. Only the People That Love (04:34)
08. This One's For the Ladies (THAT LUNGE!) (04:04)
09. My Little You (01:52)
10. Early Morning Madness (05:38)
11. Devils And Angels (Hatred) (04:17)
12. Alone Time (04:18)
Код:
X Lossless Decoder version 20181019 (151.1)
XLD extraction logfile from 2020-08-07 15:48:48 -0400
Rufus Wainwright / Unfollow The Rules
Used drive : HL-DT-ST DVDRAM GP65NS60 (revision PF00)
Media type : Pressed CD
Ripper mode             : XLD Secure Ripper
Disable audio cache     : OK for the drive with a cache less than 1375KiB
Make use of C2 pointers : NO
Read offset correction  : 6
Max retry count         : 100
Gap status              : Analyzed, Appended (except HTOA)
TOC of the extracted CD
     Track |   Start  |  Length  | Start sector | End sector
    ---------------------------------------------------------
        1  | 00:00:00 | 03:06:50 |         0    |    13999
        2  | 03:06:50 | 04:42:44 |     14000    |    35193
        3  | 07:49:19 | 06:44:59 |     35194    |    65552
        4  | 14:34:03 | 02:35:38 |     65553    |    77215
        5  | 17:09:41 | 05:26:58 |     77216    |   101723
        6  | 22:36:24 | 04:16:30 |    101724    |   120953
        7  | 26:52:54 | 04:34:58 |    120954    |   141561
        8  | 31:27:37 | 04:04:21 |    141562    |   159882
        9  | 35:31:58 | 01:52:33 |    159883    |   168315
       10  | 37:24:16 | 05:38:24 |    168316    |   193689
       11  | 43:02:40 | 04:17:36 |    193690    |   213000
       12  | 47:20:01 | 04:20:20 |    213001    |   232520
AccurateRip Summary
    Disc not found in AccurateRip DB.
All Tracks
    Album gain               : -8.55 dB
    Peak                     : 0.999969
    Statistics
        Read error                           : 0
        Jitter error (maybe fixed)           : 0
        Retry sector count                   : 0
        Damaged sector count                 : 0
Track 01
    Filename : /Users/mydrive/Music/Rufus Wainwright - Unfollow The Rules (2020) [FLAC]/01 Trouble In Paradise.flac
    Pre-gap length : 00:02:00
    Track gain               : -9.32 dB
    Peak                     : 0.999969
    CRC32 hash (test run)    : D18CBA49
    CRC32 hash               : D18CBA49
    CRC32 hash (skip zero)   : 64C31305
    AccurateRip v1 signature : 820950F1
    AccurateRip v2 signature : 218727F4
        ->Track not present in AccurateRip database.
    Statistics
        Read error                           : 0
        Jitter error (maybe fixed)           : 0
        Retry sector count                   : 0
        Damaged sector count                 : 0
Track 02
    Filename : /Users/mydrive/Music/Rufus Wainwright - Unfollow The Rules (2020) [FLAC]/02 Damsel In Distress.flac
    Pre-gap length : 00:00:60
    Track gain               : -9.29 dB
    Peak                     : 0.999969
    CRC32 hash (test run)    : 3E2C9551
    CRC32 hash               : 3E2C9551
    CRC32 hash (skip zero)   : 948F6611
    AccurateRip v1 signature : 10856733
    AccurateRip v2 signature : 3A75048E
        ->Track not present in AccurateRip database.
    Statistics
        Read error                           : 0
        Jitter error (maybe fixed)           : 0
        Retry sector count                   : 0
        Damaged sector count                 : 0
Track 03
    Filename : /Users/mydrive/Music/Rufus Wainwright - Unfollow The Rules (2020) [FLAC]/03 Unfollow The Rules.flac
    Track gain               : -7.81 dB
    Peak                     : 0.995636
    CRC32 hash (test run)    : 22994D16
    CRC32 hash               : 22994D16
    CRC32 hash (skip zero)   : A7E51792
    AccurateRip v1 signature : 25CEBDB8
    AccurateRip v2 signature : 4D405F1E
        ->Track not present in AccurateRip database.
    Statistics
        Read error                           : 0
        Jitter error (maybe fixed)           : 0
        Retry sector count                   : 0
        Damaged sector count                 : 0
Track 04
    Filename : /Users/mydrive/Music/Rufus Wainwright - Unfollow The Rules (2020) [FLAC]/04 You Ain't Big.flac
    Track gain               : -7.11 dB
    Peak                     : 0.999969
    CRC32 hash (test run)    : A003929E
    CRC32 hash               : A003929E
    CRC32 hash (skip zero)   : F6931715
    AccurateRip v1 signature : A40D6EA1
    AccurateRip v2 signature : C59838B2
        ->Track not present in AccurateRip database.
    Statistics
        Read error                           : 0
        Jitter error (maybe fixed)           : 0
        Retry sector count                   : 0
        Damaged sector count                 : 0
Track 05
    Filename : /Users/mydrive/Music/Rufus Wainwright - Unfollow The Rules (2020) [FLAC]/05 Romantical Man.flac
    Track gain               : -8.50 dB
    Peak                     : 0.999969
    CRC32 hash (test run)    : 23FC0DBB
    CRC32 hash               : 23FC0DBB
    CRC32 hash (skip zero)   : 84D0F4D8
    AccurateRip v1 signature : F87CDED3
    AccurateRip v2 signature : 45BEF8B7
        ->Track not present in AccurateRip database.
    Statistics
        Read error                           : 0
        Jitter error (maybe fixed)           : 0
        Retry sector count                   : 0
        Damaged sector count                 : 0
Track 06
    Filename : /Users/mydrive/Music/Rufus Wainwright - Unfollow The Rules (2020) [FLAC]/06 Peaceful Afternoon.flac
    Track gain               : -9.66 dB
    Peak                     : 0.999969
    CRC32 hash (test run)    : 0FB76298
    CRC32 hash               : 0FB76298
    CRC32 hash (skip zero)   : E4C89175
    AccurateRip v1 signature : 2043EC8F
    AccurateRip v2 signature : 595FF751
        ->Track not present in AccurateRip database.
    Statistics
        Read error                           : 0
        Jitter error (maybe fixed)           : 0
        Retry sector count                   : 0
        Damaged sector count                 : 0
Track 07
    Filename : /Users/mydrive/Music/Rufus Wainwright - Unfollow The Rules (2020) [FLAC]/07 Only The People That Love.flac
    Pre-gap length : 00:02:72
    Track gain               : -9.14 dB
    Peak                     : 0.999969
    CRC32 hash (test run)    : 4DED5ACC
    CRC32 hash               : 4DED5ACC
    CRC32 hash (skip zero)   : EA9E535C
    AccurateRip v1 signature : FF1B104E
    AccurateRip v2 signature : C3686830
        ->Track not present in AccurateRip database.
    Statistics
        Read error                           : 0
        Jitter error (maybe fixed)           : 0
        Retry sector count                   : 0
        Damaged sector count                 : 0
Track 08
    Filename : /Users/mydrive/Music/Rufus Wainwright - Unfollow The Rules (2020) [FLAC]/08 This One's For The Ladies (That Lunge!).flac
    Pre-gap length : 00:02:18
    Track gain               : -8.66 dB
    Peak                     : 0.997345
    CRC32 hash (test run)    : 5DBF3F19
    CRC32 hash               : 5DBF3F19
    CRC32 hash (skip zero)   : 60F4DABC
    AccurateRip v1 signature : 0E8EF540
    AccurateRip v2 signature : 767DB965
        ->Track not present in AccurateRip database.
    Statistics
        Read error                           : 0
        Jitter error (maybe fixed)           : 0
        Retry sector count                   : 0
        Damaged sector count                 : 0
Track 09
    Filename : /Users/mydrive/Music/Rufus Wainwright - Unfollow The Rules (2020) [FLAC]/09 My Little You.flac
    Pre-gap length : 00:02:38
    Track gain               : -8.06 dB
    Peak                     : 0.989471
    CRC32 hash (test run)    : F5D22C5C
    CRC32 hash               : F5D22C5C
    CRC32 hash (skip zero)   : AA1B0618
    AccurateRip v1 signature : 56F41D7F
    AccurateRip v2 signature : 3C373691
        ->Track not present in AccurateRip database.
    Statistics
        Read error                           : 0
        Jitter error (maybe fixed)           : 0
        Retry sector count                   : 0
        Damaged sector count                 : 0
Track 10
    Filename : /Users/mydrive/Music/Rufus Wainwright - Unfollow The Rules (2020) [FLAC]/10 Early Morning Madness.flac
    Pre-gap length : 00:03:57
    Track gain               : -7.99 dB
    Peak                     : 0.999969
    CRC32 hash (test run)    : 989C0118
    CRC32 hash               : 989C0118
    CRC32 hash (skip zero)   : 12543BDA
    AccurateRip v1 signature : 16156601
    AccurateRip v2 signature : 001869BC
        ->Track not present in AccurateRip database.
    Statistics
        Read error                           : 0
        Jitter error (maybe fixed)           : 0
        Retry sector count                   : 0
        Damaged sector count                 : 0
Track 11
    Filename : /Users/mydrive/Music/Rufus Wainwright - Unfollow The Rules (2020) [FLAC]/11 Hatred.flac
    Pre-gap length : 00:04:72
    Track gain               : -9.30 dB
    Peak                     : 0.999969
    CRC32 hash (test run)    : B7A85918
    CRC32 hash               : B7A85918
    CRC32 hash (skip zero)   : 489568BE
    AccurateRip v1 signature : FA7BC35D
    AccurateRip v2 signature : F51816CA
        ->Track not present in AccurateRip database.
    Statistics
        Read error                           : 0
        Jitter error (maybe fixed)           : 0
        Retry sector count                   : 0
        Damaged sector count                 : 0
Track 12
    Filename : /Users/mydrive/Music/Rufus Wainwright - Unfollow The Rules (2020) [FLAC]/12 Alone Time.flac
    Track gain               : -6.18 dB
    Peak                     : 0.988678
    CRC32 hash (test run)    : F903D70B
    CRC32 hash               : F903D70B
    CRC32 hash (skip zero)   : F54B6668
    AccurateRip v1 signature : 9A5F5E0B
    AccurateRip v2 signature : 6A0CE984
        ->Track not present in AccurateRip database.
    Statistics
        Read error                           : 0
        Jitter error (maybe fixed)           : 0
        Retry sector count                   : 0
        Damaged sector count                 : 0
No errors occurred
End of status report
-----BEGIN XLD SIGNATURE-----
TOewyAmhnSJXqZRSL8jLBLUuOkEPimL3s.4uTURfHkqpMNTWWDHJwOgxPn_pESzGigIkfSlWE89rws.ZpnOJMsfpHqc3sddfeNaeory
-----END XLD SIGNATURE-----
Код:
TITLE "Unfollow The Rules"
PERFORMER "Rufus Wainwright"
CATALOG 4050538512618
REM GENRE "Pop"
REM DATE "2020"
REM DISCNUMBER 1
REM TOTALDISCS 1
REM DISCID AA0C1C0C
REM REPLAYGAIN_ALBUM_GAIN -8.55 dB
REM REPLAYGAIN_ALBUM_PEAK 0.999969
FILE "01 Trouble In Paradise.flac" WAVE
  TRACK 01 AUDIO
    TITLE "Trouble In Paradise"
    PERFORMER "Rufus Wainwright"
    ISRC QMRSZ1900788
    REM REPLAYGAIN_TRACK_GAIN -9.32 dB
    REM REPLAYGAIN_TRACK_PEAK 0.999969
    INDEX 01 00:00:00
  TRACK 02 AUDIO
    TITLE "Damsel In Distress"
    PERFORMER "Rufus Wainwright"
    ISRC QMRSZ1900789
    REM REPLAYGAIN_TRACK_GAIN -9.29 dB
    REM REPLAYGAIN_TRACK_PEAK 0.999969
    INDEX 00 03:05:65
FILE "02 Damsel In Distress.flac" WAVE
    INDEX 01 00:00:00
FILE "03 Unfollow The Rules.flac" WAVE
  TRACK 03 AUDIO
    TITLE "Unfollow The Rules"
    PERFORMER "Rufus Wainwright"
    ISRC QMRSZ1900790
    REM REPLAYGAIN_TRACK_GAIN -7.81 dB
    REM REPLAYGAIN_TRACK_PEAK 0.995636
    INDEX 01 00:00:00
FILE "04 You Ain't Big.flac" WAVE
  TRACK 04 AUDIO
    TITLE "You Ain't Big"
    PERFORMER "Rufus Wainwright"
    ISRC QMRSZ1900791
    REM REPLAYGAIN_TRACK_GAIN -7.11 dB
    REM REPLAYGAIN_TRACK_PEAK 0.999969
    INDEX 01 00:00:00
FILE "05 Romantical Man.flac" WAVE
  TRACK 05 AUDIO
    TITLE "Romantical Man"
    PERFORMER "Rufus Wainwright"
    ISRC QMRSZ1900792
    REM REPLAYGAIN_TRACK_GAIN -8.50 dB
    REM REPLAYGAIN_TRACK_PEAK 0.999969
    INDEX 01 00:00:00
FILE "06 Peaceful Afternoon.flac" WAVE
  TRACK 06 AUDIO
    TITLE "Peaceful Afternoon"
    PERFORMER "Rufus Wainwright"
    ISRC QMRSZ1900793
    REM REPLAYGAIN_TRACK_GAIN -9.66 dB
    REM REPLAYGAIN_TRACK_PEAK 0.999969
    INDEX 01 00:00:00
  TRACK 07 AUDIO
    TITLE "Only The People That Love"
    PERFORMER "Rufus Wainwright"
    ISRC QMRSZ1900794
    REM REPLAYGAIN_TRACK_GAIN -9.14 dB
    REM REPLAYGAIN_TRACK_PEAK 0.999969
    INDEX 00 04:13:33
FILE "07 Only The People That Love.flac" WAVE
    INDEX 01 00:00:00
  TRACK 08 AUDIO
    TITLE "This One's For The Ladies (That Lunge!)"
    PERFORMER "Rufus Wainwright"
    ISRC QMRSZ1900795
    REM REPLAYGAIN_TRACK_GAIN -8.66 dB
    REM REPLAYGAIN_TRACK_PEAK 0.997345
    INDEX 00 04:32:40
FILE "08 This One's For The Ladies (That Lunge!).flac" WAVE
    INDEX 01 00:00:00
  TRACK 09 AUDIO
    TITLE "My Little You"
    PERFORMER "Rufus Wainwright"
    ISRC QMRSZ1900796
    REM REPLAYGAIN_TRACK_GAIN -8.06 dB
    REM REPLAYGAIN_TRACK_PEAK 0.989471
    INDEX 00 04:01:58
FILE "09 My Little You.flac" WAVE
    INDEX 01 00:00:00
  TRACK 10 AUDIO
    TITLE "Early Morning Madness"
    PERFORMER "Rufus Wainwright"
    ISRC QMRSZ1900797
    REM REPLAYGAIN_TRACK_GAIN -7.99 dB
    REM REPLAYGAIN_TRACK_PEAK 0.999969
    INDEX 00 01:48:51
FILE "10 Early Morning Madness.flac" WAVE
    INDEX 01 00:00:00
  TRACK 11 AUDIO
    TITLE "Hatred"
    PERFORMER "Rufus Wainwright"
    ISRC QMRSZ1900798
    REM REPLAYGAIN_TRACK_GAIN -9.30 dB
    REM REPLAYGAIN_TRACK_PEAK 0.999969
    INDEX 00 05:33:27
FILE "11 Hatred.flac" WAVE
    INDEX 01 00:00:00
FILE "12 Alone Time.flac" WAVE
  TRACK 12 AUDIO
    TITLE "Alone Time"
    PERFORMER "Rufus Wainwright"
    ISRC QMRSZ1900799
    REM REPLAYGAIN_TRACK_GAIN -6.18 dB
    REM REPLAYGAIN_TRACK_PEAK 0.988678
    INDEX 01 00:00:00
Правила, инструкции, FAQ!!!
Торрент  Добавлен [21 авг 2020, 20:23] Скачать торрент Магнет ссылка
Скачать торрент
[ Размер 25.53 КБ / Просмотров 4 ]

Статус
Проверен 
 
Размер  310.75 МБ
Приватный: Нет (DHT включён)
.torrent скачан  0
 


     Отправить личное сообщение
   
Страница 1 из 1
Показать сообщения за:  Поле сортировки  
Начать новую тему Ответить на тему


Сейчас этот форум просматривают: нет зарегистрированных пользователей и гости: 0


Вы не можете начинать темы
Вы не можете отвечать на сообщения
Вы не можете редактировать свои сообщения
Вы не можете удалять свои сообщения
Вы не можете добавлять вложения

Перейти:  
cron