Начать новую тему Ответить на тему
Статистика раздачи
Размер: 529.31 МБ | Добавлен: 26 мар 2019, 21:03 | Скачали: 3
Сидеров: 5  [0 байт/сек]    Личеров: 1  [0 байт/сек]
Пред. тема | След. тема 

Автор
Сообщение

СообщениеДобавлено: 26 мар 2019, 21:03 

Ответить с цитатой 

Roxette - The Pop Hits (Australian Limited Edition, 2 CD)
Жанр: Pop-Rock
Год выпуска диска: 2003
Производитель диска: Australia
Аудио кодек: FLAC
Тип рипа: tracks+.cue
Битрейт аудио: lossless
Трэклист:
Disc 1 tracks:
1. Opportunity Nox
2. Look
3. Dressed for Success
4. Dangerous
5. Joyride
6. Big L
7. Church of Your Heart
8. How Do You Do!
9. Sleeping in My Car
10. Run to You
11. June Afternoon
12. Stars
13. Centre of the Heart
14. Real Sugar
15. Little Miss Sorrow
Disc 2 tracks:
1. Stupid
2. Makin' Love to You
3. Better Off on Her Own
4. Bla Bla Bla Bla Bla (You Broke My Heart)
Доп. информация:
История альбома
Песни Opportunity Nox, Little Miss Sorrow, Makin' Love To You, Better Off On Her Own и Bla Bla Bla Bla Bla (You Broke My Heart) были впервые записаны для этого альбома. Композиция Stupid появлялась ранее на сольном альбоме Пера Гессле The World According to Gessle, но версии на сольнике Гессле и на альбоме Roxette отличаются, в частности, версия Roxette вошла в саунд-трэк к фильму шведского режиссера Йонаса Окерлунда Spun. Заглавная композиция Opportunity Nox вышла на сингле.
Из-за неожиданной болезни Мари Фредрикссон промоушн альбома был очень сокращен, в частности были отменены все запланированные живые выступления в Бенилюксе в рамках проекта The Night of the Proms.
Exact Audio Copy V0.99 prebeta 4 from 23. January 2008
EAC extraction logfile from 28. August 2008, 17:25
Roxette / The Pop Hits
Used drive : _NEC DVD_RW ND-4571A Adapter: 0 ID: 0
Read mode : Secure
Utilize accurate stream : Yes
Defeat audio cache : Yes
Make use of C2 pointers : No
Read offset correction : 48
Overread into Lead-In and Lead-Out : No
Fill up missing offset samples with silence : Yes
Delete leading and trailing silent blocks : No
Null samples used in CRC calculations : Yes
Used interface : Native Win32 interface for Win NT & 2000
Gap handling : Appended to previous track
Used output format : User Defined Encoder
Selected bitrate : 768 kBit/s
Quality : High
Add ID3 tag : No
Command line compressor : C:\Program Files\Exact Audio Copy\FLAC\FLAC.EXE
Additional command line options : -8 -V -T "ARTIST=%a" -T "TITLE=%t" -T "ALBUM=%g" -T "DATE=%y" -T "TRACKNUMBER=%n" -T "GENRE=%m" -T "DISCNUMBER=1" -T "COMMENT=EAC FLAC -8" %s
TOC of the extracted CD
Track | Start | Length | Start sector | End sector
---------------------------------------------------------
1 | 0:00.00 | 3:00.30 | 0 | 13529
2 | 3:00.30 | 3:58.11 | 13530 | 31390
3 | 6:58.41 | 4:12.31 | 31391 | 50321
4 | 11:10.72 | 3:51.11 | 50322 | 67657
5 | 15:02.08 | 4:01.05 | 67658 | 85737
6 | 19:03.13 | 4:29.70 | 85738 | 105982
7 | 23:33.08 | 3:23.29 | 105983 | 121236
8 | 26:56.37 | 3:12.15 | 121237 | 135651
9 | 30:08.52 | 3:33.49 | 135652 | 151675
10 | 33:42.26 | 3:39.69 | 151676 | 168169
11 | 37:22.20 | 4:13.03 | 168170 | 187147
12 | 41:35.23 | 3:57.44 | 187148 | 204966
13 | 45:32.67 | 3:22.27 | 204967 | 220143
14 | 48:55.19 | 3:17.18 | 220144 | 234936
15 | 52:12.37 | 3:55.08 | 234937 | 252569
16 | 58:39.45 | 15:18.30 | 263970 | 332849
Track 1
Filename C:\EACs\Roxette - The Pop Hits (2003) [FLAC]\01 - Opportunity Nox.wav
Pre-gap length 0:00:02.00
Peak level 100.0 %
Track quality 100.0 %
Test CRC 812507EC
Copy CRC 812507EC
Cannot be verified as accurate (confidence 2) [D28C9F8F], AccurateRip returned [ECC19F8F]
Copy OK
Track 2
Filename C:\EACs\Roxette - The Pop Hits (2003) [FLAC]\02 - The Look.wav
Peak level 100.0 %
Track quality 100.0 %
Test CRC 67242AAD
Copy CRC 67242AAD
Cannot be verified as accurate (confidence 2) [30A58749], AccurateRip returned [D5896F52]
Copy OK
Track 3
Filename C:\EACs\Roxette - The Pop Hits (2003) [FLAC]\03 - Dressed For Success.wav
Peak level 100.0 %
Track quality 100.0 %
Test CRC 5C2998D2
Copy CRC 5C2998D2
Cannot be verified as accurate (confidence 2) [49E401D9], AccurateRip returned [C8023330]
Copy OK
Track 4
Filename C:\EACs\Roxette - The Pop Hits (2003) [FLAC]\04 - Dangerous.wav
Peak level 100.0 %
Track quality 100.0 %
Test CRC 7E48C1CF
Copy CRC 7E48C1CF
Accurately ripped (confidence 2) [59ABD6BB]
Copy OK
Track 5
Filename C:\EACs\Roxette - The Pop Hits (2003) [FLAC]\05 - Joyride.wav
Peak level 100.0 %
Track quality 99.9 %
Test CRC E79F3886
Copy CRC E79F3886
Accurately ripped (confidence 2) [2FC56B28]
Copy OK
Track 6
Filename C:\EACs\Roxette - The Pop Hits (2003) [FLAC]\06 - The Big L.wav
Peak level 100.0 %
Track quality 100.0 %
Test CRC 41227892
Copy CRC 41227892
Cannot be verified as accurate (confidence 2) [4E2DBFA6], AccurateRip returned [509282E7]
Copy OK
Track 7
Filename C:\EACs\Roxette - The Pop Hits (2003) [FLAC]\07 - Church Of Your Heart.wav
Peak level 100.0 %
Track quality 100.0 %
Test CRC EB861F4D
Copy CRC EB861F4D
Cannot be verified as accurate (confidence 2) [FB98E10A], AccurateRip returned [33B61604]
Copy OK
Track 8
Filename C:\EACs\Roxette - The Pop Hits (2003) [FLAC]\08 - How Do You Do.wav
Peak level 94.4 %
Track quality 100.0 %
Test CRC 3E5D9ADC
Copy CRC 3E5D9ADC
Cannot be verified as accurate (confidence 2) [38024800], AccurateRip returned [B919E685]
Copy OK
Track 9
Filename C:\EACs\Roxette - The Pop Hits (2003) [FLAC]\09 - Sleeping In My Car.wav
Peak level 100.0 %
Track quality 100.0 %
Test CRC 92847050
Copy CRC 92847050
Cannot be verified as accurate (confidence 2) [07CB2D9C], AccurateRip returned [9E186653]
Copy OK
Track 10
Filename C:\EACs\Roxette - The Pop Hits (2003) [FLAC]\10 - Run To You.wav
Peak level 100.0 %
Track quality 100.0 %
Test CRC 18AF1B65
Copy CRC 18AF1B65
Cannot be verified as accurate (confidence 2) [C45093F3], AccurateRip returned [56720926]
Copy OK
Track 11
Filename C:\EACs\Roxette - The Pop Hits (2003) [FLAC]\11 - June Afternoon.wav
Peak level 100.0 %
Track quality 99.9 %
Test CRC D6FEDE63
Copy CRC D6FEDE63
Cannot be verified as accurate (confidence 2) [A9FB52DB], AccurateRip returned [C27B0F26]
Copy OK
Track 12
Filename C:\EACs\Roxette - The Pop Hits (2003) [FLAC]\12 - Stars.wav
Peak level 100.0 %
Track quality 100.0 %
Test CRC F144939C
Copy CRC F144939C
Cannot be verified as accurate (confidence 2) [148B9ACB], AccurateRip returned [3972F889]
Copy OK
Track 13
Filename C:\EACs\Roxette - The Pop Hits (2003) [FLAC]\13 - The Centre Of The Heart.wav
Peak level 100.0 %
Track quality 100.0 %
Test CRC 22688DBA
Copy CRC 22688DBA
Cannot be verified as accurate (confidence 2) [6743E132], AccurateRip returned [1C471DD6]
Copy OK
Track 14
Filename C:\EACs\Roxette - The Pop Hits (2003) [FLAC]\14 - Real Sugar.wav
Peak level 100.0 %
Track quality 99.9 %
Test CRC 0C46D890
Copy CRC 0C46D890
Cannot be verified as accurate (confidence 2) [069CAF85], AccurateRip returned [C4CE94B9]
Copy OK
Track 15
Filename C:\EACs\Roxette - The Pop Hits (2003) [FLAC]\15 - Little Miss Sorrow.wav
Peak level 100.0 %
Track quality 99.9 %
Test CRC FEFC66D7
Copy CRC FEFC66D7
Cannot be verified as accurate (confidence 2) [F39F7986], AccurateRip returned [63C22D9A]
Copy OK
2 track(s) accurately ripped
13 track(s) could not be verified as accurate
Some tracks could not be verified as accurate
No errors occurred
End of status report
Exact Audio Copy V0.99 prebeta 4 from 23. January 2008
EAC extraction logfile from 28. August 2008, 17:46
Roxette / The Pop Hits
Used drive : _NEC DVD_RW ND-4571A Adapter: 0 ID: 0
Read mode : Secure
Utilize accurate stream : Yes
Defeat audio cache : Yes
Make use of C2 pointers : No
Read offset correction : 48
Overread into Lead-In and Lead-Out : No
Fill up missing offset samples with silence : Yes
Delete leading and trailing silent blocks : No
Null samples used in CRC calculations : Yes
Used interface : Native Win32 interface for Win NT & 2000
Gap handling : Appended to previous track
Used output format : User Defined Encoder
Selected bitrate : 768 kBit/s
Quality : High
Add ID3 tag : No
Command line compressor : C:\Program Files\Exact Audio Copy\FLAC\FLAC.EXE
Additional command line options : -8 -V -T "ARTIST=%a" -T "TITLE=%t" -T "ALBUM=%g" -T "DATE=%y" -T "TRACKNUMBER=%n" -T "GENRE=%m" -T "DISCNUMBER=2" -T "COMMENT=EAC FLAC -8" %s
TOC of the extracted CD
Track | Start | Length | Start sector | End sector
---------------------------------------------------------
1 | 0:00.00 | 3:25.62 | 0 | 15436
2 | 3:25.62 | 3:52.32 | 15437 | 32868
3 | 7:18.19 | 2:50.03 | 32869 | 45621
4 | 10:08.22 | 4:36.40 | 45622 | 66361
5 | 17:16.62 | 2:41.13 | 77762 | 89849
Track 1
Filename C:\EACs\Roxette - The Pop Hits (2003) [FLAC]\01 - Stupid.wav
Pre-gap length 0:00:02.00
Peak level 100.0 %
Track quality 100.0 %
Test CRC 25888FE3
Copy CRC 25888FE3
Cannot be verified as accurate (confidence 2) [E231865C], AccurateRip returned [989D8318]
Copy OK
Track 2
Filename C:\EACs\Roxette - The Pop Hits (2003) [FLAC]\02 - Makin' Love To You.wav
Peak level 100.0 %
Track quality 99.9 %
Test CRC D3C6ED74
Copy CRC D3C6ED74
Cannot be verified as accurate (confidence 2) [A78DC0C6], AccurateRip returned [897CD53A]
Copy OK
Track 3
Filename C:\EACs\Roxette - The Pop Hits (2003) [FLAC]\03 - Better Off On Her Own.wav
Peak level 78.2 %
Track quality 100.0 %
Test CRC F632B848
Copy CRC F632B848
Cannot be verified as accurate (confidence 2) [F6388560], AccurateRip returned [415396B9]
Copy OK
Track 4
Filename C:\EACs\Roxette - The Pop Hits (2003) [FLAC]\04 - Bla Bla Bla Bla Bla (You Broke My Heart).wav
Peak level 100.0 %
Track quality 100.0 %
Test CRC 01637D25
Copy CRC 01637D25
Accurately ripped (confidence 2) [71983601]
Copy OK
1 track(s) accurately ripped
3 track(s) could not be verified as accurate
Some tracks could not be verified as accurate
No errors occurred
End of status report
Альбом взят из сети, спасибо камраду...инкогнито ( в смысле релизер неизвестен), представлен As is, ни чего не менялось и не удалялось.
Присутствует CD-Extra.
Правила, инструкции, FAQ!!!
Торрент  Добавлен [26 мар 2019, 21:03] Скачать торрент Магнет ссылка
Скачать торрент
[ Размер 13.05 КБ / Просмотров 17 ]

Статус
Проверен 
 
Размер  529.31 МБ
Приватный: Нет (DHT включён)
.torrent скачан  3
 


     Отправить личное сообщение
   
Страница 1 из 1
Показать сообщения за:  Поле сортировки  
Начать новую тему Ответить на тему


Сейчас этот форум просматривают: нет зарегистрированных пользователей и гости: 0


Вы не можете начинать темы
Вы не можете отвечать на сообщения
Вы не можете редактировать свои сообщения
Вы не можете удалять свои сообщения
Вы не можете добавлять вложения

Перейти:  
cron