Начать новую тему Ответить на тему
Статистика раздачи
Размер: 125.67 МБ | Добавлен: 26 мар 2019, 20:36 | Скачали: 0
Сидеров: 0  [0 байт/сек]    Личеров: 0  [0 байт/сек]
Пред. тема | След. тема 

Автор
Сообщение

СообщениеДобавлено: 26 мар 2019, 20:36 

Ответить с цитатой 

Roxette / The Look '95 (Single)
Жанр: Pop-Rock
Год издания: 1995
Страна: Sweden
Аудиокодек: FLAC (*.flac)
Тип рипа: tracks+.cue
Битрейт аудио: lossless
Источник (релизер): what.cd
Треклист:
01. The Look (Chaps 1995 Remix)
02. The Look (Original Version)
03. Crazy About You
04. Dressed for Success (US Mix)
Код:
Exact Audio Copy V1.0 beta 3 from 29. August 2011
EAC extraction logfile from 19. January 2013, 7:04
Roxette / The Look '95
Used drive  : TSSTcorpDVD+-RW TS-T633C   Adapter: 1  ID: 0
Read mode               : Secure
Utilize accurate stream : Yes
Defeat audio cache      : Yes
Make use of C2 pointers : No
Read offset correction                      : 6
Overread into Lead-In and Lead-Out          : No
Fill up missing offset samples with silence : Yes
Delete leading and trailing silent blocks   : No
Null samples used in CRC calculations       : Yes
Used interface                              : Native Win32 interface for Win NT & 2000
Gap handling                                : Appended to previous track
Used output format              : User Defined Encoder
Selected bitrate                : 1024 kBit/s
Quality                         : High
Add ID3 tag                     : No
Command line compressor         : C:\Program Files (x86)\Exact Audio Copy\Flac\flac.exe
Additional command line options : -8 -V -T "ARTIST=%artist%" -T "TITLE=%title%" -T "ALBUM=%albumtitle%" -T "DATE=%year%" -T "TRACKNUMBER=%tracknr%" -T "GENRE=%genre%" -T "PERFORMER=%albuminterpret%" -T "COMPOSER=%composer%" %haslyrics%--tag-from-file=LYRICS="%lyricsfile%"%haslyrics% -T "ALBUMARTIST=%albumartist%" -T "DISCNUMBER=%cdnumber%" -T "TOTALDISCS=%totalcds%" -T "TOTALTRACKS=%numtracks%" -T "COMMENT=%comment%" %source% -o %dest%
TOC of the extracted CD
     Track |   Start  |  Length  | Start sector | End sector
    ---------------------------------------------------------
        1  |  0:00.00 |  5:10.32 |         0    |    23281
        2  |  5:10.32 |  3:58.58 |     23282    |    41189
        3  |  9:09.15 |  3:58.70 |     41190    |    59109
        4  | 13:08.10 |  4:53.20 |     59110    |    81104
Track  1
     Filename C:\EACrips\01 - The Look (Chaps 1995 Remix).wav
     Pre-gap length  0:00:02.00
     Peak level 95.1 %
     Extraction speed 1.1 X
     Track quality 99.9 %
     Test CRC AF1A0EE1
     Copy CRC AF1A0EE1
     Accurately ripped (confidence 2)  [35E7B8C0]  (AR v1)
     Copy OK
Track  2
     Filename C:\EACrips\02 - The Look (Original Version).wav
     Pre-gap length  0:00:01.66
     Peak level 100.0 %
     Extraction speed 1.3 X
     Track quality 100.0 %
     Test CRC D499509B
     Copy CRC D499509B
     Accurately ripped (confidence 2)  [A297A5A2]  (AR v1)
     Copy OK
Track  3
     Filename C:\EACrips\03 - Crazy About You.wav
     Pre-gap length  0:00:01.33
     Peak level 100.0 %
     Extraction speed 1.4 X
     Track quality 100.0 %
     Test CRC 92368735
     Copy CRC 92368735
     Accurately ripped (confidence 2)  [FDCF0F6D]  (AR v1)
     Copy OK
Track  4
     Filename C:\EACrips\04 - Dressed for Success (US Mix).wav
     Pre-gap length  0:00:00.26
     Peak level 95.5 %
     Extraction speed 1.6 X
     Track quality 100.0 %
     Test CRC 52DF2222
     Copy CRC 52DF2222
     Accurately ripped (confidence 2)  [BD44768E]  (AR v1)
     Copy OK
All tracks accurately ripped
No errors occurred
End of status report
==== Log checksum 3E9C5C59FF880DCA945B09BB70B7C47BBB565D9F801A0C0BB7217B668FEB7863 ====
Код:
REM GENRE Pop
REM DATE 1995
REM DISCID 23043904
REM COMMENT "ExactAudioCopy v1.0b3"
FILE "01 - The Look (Chaps 1995 Remix).wav" WAVE
  TRACK 01 AUDIO
    INDEX 01 00:00:00
  TRACK 02 AUDIO
    INDEX 00 05:08:57
FILE "02 - The Look (Original Version).wav" WAVE
    INDEX 01 00:00:00
  TRACK 03 AUDIO
    INDEX 00 03:57:33
FILE "03 - Crazy About You.wav" WAVE
    INDEX 01 00:00:00
  TRACK 04 AUDIO
    INDEX 00 03:58:50
FILE "04 - Dressed for Success (US Mix).wav" WAVE
    INDEX 01 00:00:00
Правила, инструкции, FAQ!!!
Торрент  Добавлен [26 мар 2019, 20:36] Скачать торрент Магнет ссылка
Скачать торрент
[ Размер 20.52 КБ / Просмотров 5 ]

Статус
Проверен 
 
Размер  125.67 МБ
Приватный: Нет (DHT включён)
.torrent скачан  0
 


     Отправить личное сообщение
   
Страница 1 из 1
Показать сообщения за:  Поле сортировки  
Начать новую тему Ответить на тему


Сейчас этот форум просматривают: нет зарегистрированных пользователей и гости: 0


Вы не можете начинать темы
Вы не можете отвечать на сообщения
Вы не можете редактировать свои сообщения
Вы не можете удалять свои сообщения
Вы не можете добавлять вложения

Перейти:  
cron