Начать новую тему Ответить на тему
Статистика раздачи
Размер: 141.67 МБ | Добавлен: 26 мар 2019, 20:49 | Скачали: 0
Сидеров: 0  [0 байт/сек]    Личеров: 0  [0 байт/сек]
Пред. тема | След. тема 

Автор
Сообщение

СообщениеДобавлено: 26 мар 2019, 20:49 

Ответить с цитатой 

Roxette - The big L. (single)
Жанр: Pop / Rock
Год выпуска диска: 1991
Производитель диска: EMI Svenska AB, Holland
Аудио кодек: FLAC
Тип рипа: image+.cue
Битрейт аудио: lossless
Продолжительность: 18:50
Трэклист:
1. The big L. (Album version) 4:27
2. One is such a lonely number (Demo / September '87) 3:33
3. The big L. (The bigger, the better mix) 6:17
4. The big L. (U.S. mix) 4:29
Exact Audio Copy V0.99 prebeta 5 from 4. May 2009
Отчёт EAC об извлечении, выполненном 19. июля 2009, 20:28
Roxette / The Big L. (CD Single)
Дисковод: ASUS DRW-2014L1T Adapter: 2 ID: 0
Режим чтения : Достоверность
Использование точного потока : Да
Отключение кэша аудио : Да
Использование указателей C2 : Нет
Коррекция смещения при чтении : 6
Способность читать области Lead-in и Lead-out : Нет
Заполнение пропущенных сэмплов тишиной : Да
Удаление блоков с тишиной в начале и конце : Нет
При вычислениях CRC использовались нулевые сэмплы : Да
Интерфейс : Установленный внешний ASPI-интерфейс
Выходной формат : Пользовательский кодировщик
Выбранный битрейт : 1024 kBit/s
Качество : Высокий
Добавление ID3-тэга : Нет
Утилита сжатия : C:\Program Files\Exact Audio Copy\FLAC\FLAC.EXE
Дополнительные параметры : -6 -V -T "ARTIST=%a" -T "TITLE=%t" -T "ALBUM=%g" -T "DATE=%y" -T "TRACKNUMBER=%n" -T "GENRE=%m" -T "COMMENT=%e" %s -o %d
TOC извлечённого CD
Трек | Старт | Длительность | Начальный сектор | Конечный сектор
---------------------------------------------------------------------
1 | 0:00.00 | 4:27.30 | 0 | 20054
2 | 4:27.30 | 3:33.35 | 20055 | 36064
3 | 8:00.65 | 6:17.45 | 36065 | 64384
4 | 14:18.35 | 4:29.72 | 64385 | 84631
Характеристики диапазона извлечения и сообщения об ошибках
Выбранный диапазон
Имя файла H:\TorrentFiles\Roxette The Big L\Roxette - The Big L. (CD Single).wav
Пиковый уровень 100.0 %
Качество диапазона 100.0 %
CRC теста DDFED08B
CRC копии DDFED08B
Копирование... OK
Ошибок не произошло
AccurateRip: сводка
Трек 1 точное извлечение (доверие 4) [BF88EBDF]
Трек 2 точное извлечение (доверие 4) [C698E98D]
Трек 3 точное извлечение (доверие 4) [59EF3CD3]
Трек 4 точное извлечение (доверие 4) [113F13BE]
Все треки извлечены точно
Конец отчёта
Track 4 ©1990 EMI Svenska AB
Правила, инструкции, FAQ!!!
Торрент  Добавлен [26 мар 2019, 20:49] Скачать торрент Магнет ссылка
Скачать торрент
[ Размер 11.8 КБ / Просмотров 4 ]

Статус
Проверен 
 
Размер  141.67 МБ
Приватный: Нет (DHT включён)
.torrent скачан  0
 


     Отправить личное сообщение
   
Страница 1 из 1
Показать сообщения за:  Поле сортировки  
Начать новую тему Ответить на тему


Сейчас этот форум просматривают: нет зарегистрированных пользователей и гости: 0


Вы не можете начинать темы
Вы не можете отвечать на сообщения
Вы не можете редактировать свои сообщения
Вы не можете удалять свои сообщения
Вы не можете добавлять вложения

Перейти:  
cron