Начать новую тему Ответить на тему
Статистика раздачи
Размер: 266.8 МБ | Добавлен: 26 мар 2019, 19:46 | Скачали: 0
Сидеров: 0  [0 байт/сек]    Личеров: 0  [0 байт/сек]
Пред. тема | След. тема 

Автор
Сообщение

СообщениеДобавлено: 26 мар 2019, 19:46 

Ответить с цитатой 

Roxette - Sweet As A Nut (Bootleg)
Страна: Germany
Жанр: Pop/Rock
Год выпуска: 1994
Формат: APE (image + .cue)
Битрейт аудио: 980 kbps
Продолжительность: 38:04
Трэклист:
01 Goodbye to You (Diff. Mix by Rene Hedemyr) 06:46
02 I Call Your Name (Remix by Frank Mono) 05:54
03 Soul Deep (Remix by Kai Eriksson) 05:20
04 Megamix 09:04
05 The Look (Swemix) 07:04
06 Almost Unreal (Mix) 03:55
Доп. информация:
Exact Audio Copy V0.99 prebeta 4 from 23. January 2008
Отчёт EAC об извлечении, выполненном 8. марта 2008, 7:45
Roxette (Per Gessle/Marie Fredriksson) / Sweet As A Nut (BootLeg)
Дисковод: _NEC DVD_RW ND-3540A Adapter: 0 ID: 3
Режим чтения : Достоверность
Использование точного потока : Да
Отключение кэша аудио : Да
Использование указателей C2 : Нет
Коррекция смещения при чтении : 48
Способность читать области Lead-in и Lead-out : Нет
Заполнение пропущенных сэмплов тишиной : Да
Удаление блоков с тишиной в начале и конце : Нет
При вычислениях CRC использовались нулевые сэмплы : Да
Интерфейс : Установленный внешний ASPI-интерфейс
Выходной формат : Внутренние WAV-операции
Формат сэмплов : 44.100 Гц; 16 бит; стерео
TOC извлечённого CD
Трек | Старт | Длительность | Начальный сектор | Конечный сектор
---------------------------------------------------------------------
1 | 0:00.00 | 6:46.25 | 0 | 30474
2 | 6:46.25 | 5:54.00 | 30475 | 57024
3 | 12:40.25 | 5:20.17 | 57025 | 81041
4 | 18:00.42 | 9:04.03 | 81042 | 121844
5 | 27:04.45 | 7:04.27 | 121845 | 153671
6 | 34:08.72 | 3:55.03 | 153672 | 171299
Характеристики диапазона извлечения и сообщения об ошибках
Выбранный диапазон
Имя файла D:\Мои документы\Roxette - Sweet As A Nut (BootLeg).wav
Пиковый уровень 100.0 %
Качество диапазона 99.9 %
CRC копии F9962D3E
Копирование... OK
Ошибок не произошло
Конец отчёта
Один из самых интересных бутлегов группы, который включает различные ремиксы их песен, было сделано всего несколько копий диска. Так как треки были срипованы с винила то качество звука не самое лучшее.
Диск имеет одну из самых худших обложек. 6-й трек вообще не упоминается на диске. На обложке написано “Roxette - Sweet as a Nut”, в то время как на самом диске напечатано “Healing the World - Roxette Mix”. На другой стороне обложки имеется надпись “Congratulations to Marie for recently becoming mother to baby girl Ines Josefin. May she be well and happy!”.
Правила, инструкции, FAQ!!!
Торрент  Добавлен [26 мар 2019, 19:46] Скачать торрент Магнет ссылка
Скачать торрент
[ Размер 11.11 КБ / Просмотров 3 ]

Статус
Проверен 
 
Размер  266.8 МБ
Приватный: Нет (DHT включён)
.torrent скачан  0
 


     Отправить личное сообщение
   
Страница 1 из 1
Показать сообщения за:  Поле сортировки  
Начать новую тему Ответить на тему


Сейчас этот форум просматривают: нет зарегистрированных пользователей и гости: 0


Вы не можете начинать темы
Вы не можете отвечать на сообщения
Вы не можете редактировать свои сообщения
Вы не можете удалять свои сообщения
Вы не можете добавлять вложения

Перейти:  
cron