Начать новую тему Ответить на тему
Статистика раздачи
Размер: 90.24 МБ | Добавлен: 26 мар 2019, 19:45 | Скачали: 0
Сидеров: 6  [0 байт/сек]    Личеров: 1  [0 байт/сек]
Пред. тема | След. тема 

Автор
Сообщение

СообщениеДобавлено: 26 мар 2019, 19:45 

Ответить с цитатой 

Roxette - Sleeping in my car (Single)
Жанр: Pop / Rock
Год выпуска диска: 1994
Производитель диска: EMI Svenska AB, Holland
Аудио кодек: FLAC
Тип рипа: image+.cue
Битрейт аудио: lossless
Продолжительность: 12:03
Трэклист:
1. Sleeping in my car 3:34
2. The look 5:12
3. Sleeping in my car (The Stockholm demo version) 3:13
Exact Audio Copy V0.99 prebeta 5 from 4. May 2009
Отчёт EAC об извлечении, выполненном 27. июля 2009, 13:52
Roxette / Sleeping In My Car
Дисковод: ASUS DRW-2014L1T Adapter: 2 ID: 0
Режим чтения : Достоверность
Использование точного потока : Да
Отключение кэша аудио : Да
Использование указателей C2 : Нет
Коррекция смещения при чтении : 6
Способность читать области Lead-in и Lead-out : Нет
Заполнение пропущенных сэмплов тишиной : Да
Удаление блоков с тишиной в начале и конце : Нет
При вычислениях CRC использовались нулевые сэмплы : Да
Интерфейс : Установленный внешний ASPI-интерфейс
Выходной формат : Пользовательский кодировщик
Выбранный битрейт : 1024 kBit/s
Качество : Высокий
Добавление ID3-тэга : Нет
Утилита сжатия : C:\Program Files\Exact Audio Copy\FLAC\FLAC.EXE
Дополнительные параметры : -6 -V -T "ARTIST=%a" -T "TITLE=%t" -T "ALBUM=%g" -T "DATE=%y" -T "TRACKNUMBER=%n" -T "GENRE=%m" -T "COMMENT=%e" %s -o %d
TOC извлечённого CD
Трек | Старт | Длительность | Начальный сектор | Конечный сектор
---------------------------------------------------------------------
1 | 0:00.00 | 3:34.35 | 0 | 16084
2 | 3:34.35 | 5:12.58 | 16085 | 39542
3 | 8:47.18 | 3:13.65 | 39543 | 54082
Характеристики диапазона извлечения и сообщения об ошибках
Выбранный диапазон
Имя файла H:\TorrentFiles\Roxette - Sleeping in my car\Roxette - Sleeping In My Car.wav
Пиковый уровень 100.0 %
Качество диапазона 100.0 %
CRC теста DBB4B47A
CRC копии DBB4B47A
Копирование... OK
Ошибок не произошло
AccurateRip: сводка
Трек 1 точное извлечение (доверие 7) [3CF06889]
Трек 2 точное извлечение (доверие 7) [76C7049D]
Трек 3 точное извлечение (доверие 7) [84D575DF]
Все треки извлечены точно
Конец отчёта
Правила, инструкции, FAQ!!!
Торрент  Добавлен [26 мар 2019, 19:45] Скачать торрент Магнет ссылка
Скачать торрент
[ Размер 14.78 КБ / Просмотров 1 ]

Статус
Проверен 
 
Размер  90.24 МБ
Приватный: Нет (DHT включён)
.torrent скачан  0
 


     Отправить личное сообщение
   
Страница 1 из 1
Показать сообщения за:  Поле сортировки  
Начать новую тему Ответить на тему


Сейчас этот форум просматривают: нет зарегистрированных пользователей и гости: 0


Вы не можете начинать темы
Вы не можете отвечать на сообщения
Вы не можете редактировать свои сообщения
Вы не можете удалять свои сообщения
Вы не можете добавлять вложения

Перейти:  
cron