Начать новую тему Ответить на тему
Статистика раздачи
Размер: 137.85 МБ | Добавлен: 26 мар 2019, 20:37 | Скачали: 0
Сидеров: 1  [0 байт/сек]    Личеров: 0  [0 байт/сек]
Пред. тема | След. тема 

Автор
Сообщение

СообщениеДобавлено: 26 мар 2019, 20:37 

Ответить с цитатой 

Roxette / Sleeping In My Car
Жанр: Pop Rock
Носитель: CDM
Год издания: 1994
Издатель (лейбл): EMI United Kingdom
Номер по каталогу: CDEM 314
Аудиокодек: FLAC (*.flac)
Тип рипа: tracks+.cue
Битрейт аудио: lossless
Продолжительность: 15:59
Источник (релизер): собственный рип
Наличие сканов в содержимом раздачи: да
Треклист:
01. Roxette - Sleeping In My Car [03:34]
02. Roxette - The Look (Unplugged) [05:12]
03. Roxette - Sleeping In My Car (The Stockholm Demo Version) [03:14]
04. Roxette - Almost Unreal [03:56]
Код:
Exact Audio Copy V1.0 beta 3 from 29. August 2011
EAC extraction logfile from 10. December 2014, 17:15
Roxette / Sleeping In My Car
Used drive  : ASUS    SDRW-08D2S-U   Adapter: 1  ID: 0
Read mode               : Secure
Utilize accurate stream : Yes
Defeat audio cache      : Yes
Make use of C2 pointers : No
Read offset correction                      : 6
Overread into Lead-In and Lead-Out          : No
Fill up missing offset samples with silence : Yes
Delete leading and trailing silent blocks   : No
Null samples used in CRC calculations       : Yes
Used interface                              : Native Win32 interface for Win NT & 2000
Gap handling                                : Appended to previous track
Used output format              : User Defined Encoder
Selected bitrate                : 128 kBit/s
Quality                         : High
Add ID3 tag                     : No
Command line compressor         : C:\flac-1.3.0-x64-icl\flac.exe
Additional command line options : -8 -V -T "ARTIST=%artist%" -T "TITLE=%title%" -T "ALBUM=%albumtitle%" -T "DATE=%year%" -T "TRACKNUMBER=%tracknr%" -T "GENRE=%genre%" -T "COMMENT=ripped by Andy aka yetiisyou" %source%
TOC of the extracted CD
     Track |   Start  |  Length  | Start sector | End sector
    ---------------------------------------------------------
        1  |  0:00.33 |  3:34.65 |        33    |    16147
        2  |  3:35.23 |  5:12.67 |     16148    |    39614
        3  |  8:48.15 |  3:14.70 |     39615    |    54234
        4  | 12:03.10 |  3:56.53 |     54235    |    71987
Track  1
     Filename E:\!Ripped by Andy aka yetiisyou\Roxette - Sleeping In My Car [CDEM 314] [1994]\01. Sleeping In My Car.wav
     Pre-gap length  0:00:02.33
     Peak level 97.7 %
     Extraction speed 1.1 X
     Track quality 100.0 %
     Test CRC 2B53E2C2
     Copy CRC 2B53E2C2
     Accurately ripped (confidence 2)  [571B1E1C]  (AR v2)
     Copy OK
Track  2
     Filename E:\!Ripped by Andy aka yetiisyou\Roxette - Sleeping In My Car [CDEM 314] [1994]\02. The Look (Unplugged).wav
     Pre-gap length  0:00:01.38
     Peak level 97.7 %
     Extraction speed 1.3 X
     Track quality 100.0 %
     Test CRC 9BF481B0
     Copy CRC 9BF481B0
     Accurately ripped (confidence 2)  [917F72A0]  (AR v2)
     Copy OK
Track  3
     Filename E:\!Ripped by Andy aka yetiisyou\Roxette - Sleeping In My Car [CDEM 314] [1994]\03. Sleeping In My Car (The Stockholm Demo Version).wav
     Pre-gap length  0:00:00.42
     Peak level 97.7 %
     Extraction speed 1.3 X
     Track quality 100.0 %
     Test CRC A6C6EE80
     Copy CRC A6C6EE80
     Accurately ripped (confidence 2)  [F20E13B3]  (AR v2)
     Copy OK
Track  4
     Filename E:\!Ripped by Andy aka yetiisyou\Roxette - Sleeping In My Car [CDEM 314] [1994]\04. Almost Unreal.wav
     Pre-gap length  0:00:01.05
     Peak level 95.2 %
     Extraction speed 1.3 X
     Track quality 99.9 %
     Test CRC CD74BD20
     Copy CRC CD74BD20
     Accurately ripped (confidence 2)  [0D766732]  (AR v1)
     Copy OK
All tracks accurately ripped
No errors occurred
End of status report
==== Log checksum 84D76904B5B2DC267AE58CD06EC31B2B1A36A7DEA24D209CD9C9E397192CF3CA ====
Код:
REM DATE 1994
REM DISCID 2203BF04
REM COMMENT "ExactAudioCopy v1.0b3"
CATALOG 0724386507624
PERFORMER "Roxette"
TITLE "Sleeping In My Car"
FILE "01. Sleeping In My Car.wav" WAVE
  TRACK 01 AUDIO
    TITLE "Sleeping In My Car"
    PERFORMER "Roxette"
    PREGAP 00:00:33
    INDEX 01 00:00:00
  TRACK 02 AUDIO
    TITLE "The Look (Unplugged)"
    PERFORMER "Roxette"
    INDEX 00 03:33:27
FILE "02. The Look (Unplugged).wav" WAVE
    INDEX 01 00:00:00
  TRACK 03 AUDIO
    TITLE "Sleeping In My Car (The Stockholm Demo Version)"
    PERFORMER "Roxette"
    INDEX 00 05:12:25
FILE "03. Sleeping In My Car (The Stockholm Demo Version).wav" WAVE
    INDEX 01 00:00:00
  TRACK 04 AUDIO
    TITLE "Almost Unreal"
    PERFORMER "Roxette"
    INDEX 00 03:13:65
FILE "04. Almost Unreal.wav" WAVE
    INDEX 01 00:00:00
Правила, инструкции, FAQ!!!
Торрент  Добавлен [26 мар 2019, 20:37] Скачать торрент Магнет ссылка
Скачать торрент
[ Размер 11.77 КБ / Просмотров 7 ]

Статус
Проверен 
 
Размер  137.85 МБ
Приватный: Нет (DHT включён)
.torrent скачан  0
 


     Отправить личное сообщение
   
Страница 1 из 1
Показать сообщения за:  Поле сортировки  
Начать новую тему Ответить на тему


Сейчас этот форум просматривают: нет зарегистрированных пользователей и гости: 0


Вы не можете начинать темы
Вы не можете отвечать на сообщения
Вы не можете редактировать свои сообщения
Вы не можете удалять свои сообщения
Вы не можете добавлять вложения

Перейти:  
cron