Начать новую тему Ответить на тему
Статистика раздачи
Размер: 907.95 МБ | Добавлен: 26 мар 2019, 20:36 | Скачали: 0
Сидеров: 0  [0 байт/сек]    Личеров: 0  [0 байт/сек]
Пред. тема | След. тема 

Автор
Сообщение

СообщениеДобавлено: 26 мар 2019, 20:36 

Ответить с цитатой 

Roxette - 7 CD Singles [1999-2007]
Жанр: Pop Rock
Год выпуска дисков: 1990-2007
Аудио кодек: APE
Тип рипа: image+.cue
Битрейт аудио: lossless
Продолжительность общая: 1:40:51


Roxette - How Do You Do!
Год выпуска диска: 1992
Производитель диска: Sweden / Holland
Трэклист:
1 How Do You Do! (7" Version) (3:12)
2 Fading Like A Flower (Every Time You Leave) (4:11)
3 Knockin' On Every Door (BomKrash 12" Remix) (6:05) Remix - BomKrash
4 How Do You Do! (BomKrash 12" Remix) (5:43) Remix - BomKrash
Доп. информация: Track 1 recorded at EMI Studios, Stockholm and Tits & Ass Studio, Halmstad in March & May '92.
Track 2 recorded live at The Entertainment Centre, Sydney, Australia in December '91.
EMI Svenska AB; 865 002-2
UPC: 724386500229
Код:
Exact Audio Copy V0.99 prebeta 4 from 23. January 2008
EAC extraction logfile from 7. December 2008, 13:39
Roxette / How Do You Do!
Used drive  : PLEXTOR CD-R   PX-W4824A   Adapter: 1  ID: 1
Read mode               : Secure
Utilize accurate stream : Yes
Defeat audio cache      : Yes
Make use of C2 pointers : No
Read offset correction                      : 98
Overread into Lead-In and Lead-Out          : No
Fill up missing offset samples with silence : Yes
Delete leading and trailing silent blocks   : No
Null samples used in CRC calculations       : Yes
Used interface                              : Installed external ASPI interface
Used output format : Internal WAV Routines
Sample format      : 44.100 Hz; 16 Bit; Stereo
TOC of the extracted CD
     Track |   Start  |  Length  | Start sector | End sector
    ---------------------------------------------------------
        1  |  0:00.33 |  3:12.47 |        33  |       14479
        2  |  3:13.05 |  4:11.15 |     14480  |       33319
        3  |  7:24.20 |  6:05.43 |     33320  |       60737
        4  | 13:29.63 |  5:43.06 |     60738  |       86468
Range status and errors
Selected range
   Filename H:\Roxette - How Do You Do! CD5\CDImage.wav
   Peak level 97.8 %
   Range quality 100.0 %
   Test CRC 3D451CA6
   Copy CRC 3D451CA6
   Copy OK
No errors occurred
AccurateRip summary
Track  1  accurately ripped (confidence 7)  [A67D8D7E]
Track  2  accurately ripped (confidence 7)  [D413973A]
Track  3  accurately ripped (confidence 7)  [52C4E5D6]
Track  4  accurately ripped (confidence 7)  [1C973950]
All tracks accurately ripped
End of status report
Код:
AUDIOCHECKER v2.0 beta (build 457) - by Dester - opdester@freemail.hu
~~~~~~~~~~~~~~~~~~~~~~~~~~~~~~~~~~
-=== DO NOT EDIT THIS FILE! ===-
Path: ...\Roxette - How Do You Do! CD5
01 -=- CDImage.wav -=- CDDA (100%)
190127764



Roxette - It Must Have Been Love
#777Год выпуска диска: 1990
Производитель диска: W-Germany
Трэклист:
1 It Must Have Been Love (4:18)
2 Paint (3:30)
3 Cry (Live) (5:42)
Доп. информация:
EMI Electrola GmbH; CDP 560-13 6380 2
Код:
Exact Audio Copy V0.99 prebeta 4 from 23. January 2008
EAC extraction logfile from 7. December 2008, 13:51
Roxette / It Must Have Been Love
Used drive  : PLEXTOR CD-R   PX-W4824A   Adapter: 1  ID: 1
Read mode               : Secure
Utilize accurate stream : Yes
Defeat audio cache      : Yes
Make use of C2 pointers : No
Read offset correction                      : 98
Overread into Lead-In and Lead-Out          : No
Fill up missing offset samples with silence : Yes
Delete leading and trailing silent blocks   : No
Null samples used in CRC calculations       : Yes
Used interface                              : Installed external ASPI interface
Used output format : Internal WAV Routines
Sample format      : 44.100 Hz; 16 Bit; Stereo
TOC of the extracted CD
     Track |   Start  |  Length  | Start sector | End sector
    ---------------------------------------------------------
        1  |  0:00.00 |  4:22.55 |         0  |       19704
        2  |  4:22.55 |  3:29.20 |     19705  |       35399
        3  |  7:52.00 |  5:42.00 |     35400  |       61049
Range status and errors
Selected range
   Filename H:\Roxette - It Must Have Been Love CD5\CDImage.wav
   Peak level 93.1 %
   Range quality 100.0 %
   Test CRC 3EF59758
   Copy CRC 3EF59758
   Copy OK
No errors occurred
AccurateRip summary
Track  1  accurately ripped (confidence 7)  [CEC065A0]
Track  2  accurately ripped (confidence 6)  [BBD94F04]
Track  3  accurately ripped (confidence 6)  [1A3F1E2E]
All tracks accurately ripped
End of status report
Код:
AUDIOCHECKER v2.0 beta (build 457) - by Dester - opdester@freemail.hu
~~~~~~~~~~~~~~~~~~~~~~~~~~~~~~~~~~
-=== DO NOT EDIT THIS FILE! ===-
Path: ...\Roxette - It Must Have Been Love CD5
01 -=- CDImage.wav -=- CDDA (100%)
190127764



Roxette - Joyride
#777Год выпуска диска: 1991
Производитель диска: Sweden
Трэклист:
1 Joyride (7" Version) (3:58)
2 Come Back (Before You Leave) (4:34)
3 Joyride (Magicfriendmix) (12" Version) (6:08) Remix - Brian Malouf
4 Joyride (U.S. Remix) (4:04) Remix - Brian Malouf
Доп. информация:
EMI Music (Sweden); 136 400-2
Код:
Exact Audio Copy V0.99 prebeta 4 from 23. January 2008
EAC extraction logfile from 7. December 2008, 14:10
Roxette / Joyride
Used drive  : PLEXTOR CD-R   PX-W4824A   Adapter: 1  ID: 1
Read mode               : Secure
Utilize accurate stream : Yes
Defeat audio cache      : Yes
Make use of C2 pointers : No
Read offset correction                      : 98
Overread into Lead-In and Lead-Out          : No
Fill up missing offset samples with silence : Yes
Delete leading and trailing silent blocks   : No
Null samples used in CRC calculations       : Yes
Used interface                              : Installed external ASPI interface
Used output format : Internal WAV Routines
Sample format      : 44.100 Hz; 16 Bit; Stereo
TOC of the extracted CD
     Track |   Start  |  Length  | Start sector | End sector
    ---------------------------------------------------------
        1  |  0:00.33 |  4:01.42 |        33  |       18149
        2  |  4:02.00 |  4:36.25 |     18150  |       38874
        3  |  8:38.25 |  6:11.40 |     38875  |       66739
        4  | 14:49.65 |  4:05.00 |     66740  |       85114
Range status and errors
Selected range
   Filename H:\Roxette - Joyride CD5\CDImage.wav
   Peak level 100.0 %
   Range quality 100.0 %
   Test CRC 2F0A0246
   Copy CRC 2F0A0246
   Copy OK
No errors occurred
AccurateRip summary
Track  1  accurately ripped (confidence 17)  [58206A8A]
Track  2  accurately ripped (confidence 17)  [FE300669]
Track  3  accurately ripped (confidence 17)  [5367CE43]
Track  4  accurately ripped (confidence 17)  [AB349FEC]
All tracks accurately ripped
End of status report
Код:
AUDIOCHECKER v2.0 beta (build 457) - by Dester - opdester@freemail.hu
~~~~~~~~~~~~~~~~~~~~~~~~~~~~~~~~~~
-=== DO NOT EDIT THIS FILE! ===-
Path: ...\Roxette - Joyride CD5
01 -=- CDImage.wav -=- CDDA (100%)
190127764



Roxette - One Wish
#777Год выпуска диска: 2006
Производитель диска: Europe
Трэклист:
1 One Wish (3:04)
2 The Rox Medley (4:40) Remix - Christoffer Lundquist , Clarence Öfwerman , Jimmy Monell
3 It Must Have Been Love (Christmas For The Broken Hearted) (4:48)
4 Turn To Me (2:58)
Доп. информация:
EMI Music (Sweden); 0946 3 76119-2 0
The Rox Medley is a remix medley of: The Look, Joyride, Listen To Your Heart, Dangerous, It Must Have Been Love & Fading Like A Flower (Every Time You Leave).
Код:
Exact Audio Copy V0.99 prebeta 4 from 23. January 2008
EAC extraction logfile from 7. December 2008, 14:20
Roxette / One Wish
Used drive  : PLEXTOR CD-R   PX-W4824A   Adapter: 1  ID: 1
Read mode               : Secure
Utilize accurate stream : Yes
Defeat audio cache      : Yes
Make use of C2 pointers : No
Read offset correction                      : 98
Overread into Lead-In and Lead-Out          : No
Fill up missing offset samples with silence : Yes
Delete leading and trailing silent blocks   : No
Null samples used in CRC calculations       : Yes
Used interface                              : Installed external ASPI interface
Used output format : Internal WAV Routines
Sample format      : 44.100 Hz; 16 Bit; Stereo
TOC of the extracted CD
     Track |   Start  |  Length  | Start sector | End sector
    ---------------------------------------------------------
        1  |  0:00.00 |  3:05.11 |         0  |       13885
        2  |  3:05.11 |  4:42.23 |     13886  |       35058
        3  |  7:47.34 |  4:50.44 |     35059  |       56852
        4  | 12:38.03 |  2:58.12 |     56853  |       70214
Range status and errors
Selected range
   Filename H:\Roxette - One Wish CD5\CDImage.wav
   Peak level 98.9 %
   Range quality 100.0 %
   Test CRC B4DE4C1C
   Copy CRC B4DE4C1C
   Copy OK
No errors occurred
AccurateRip summary
Track  1  accurately ripped (confidence 5)  [34B1380B]
Track  2  accurately ripped (confidence 5)  [56EC9362]
Track  3  accurately ripped (confidence 5)  [1A4A2A84]
Track  4  accurately ripped (confidence 5)  [EBB7ED52]
All tracks accurately ripped
End of status report
Код:
AUDIOCHECKER v2.0 beta (build 457) - by Dester - opdester@freemail.hu
~~~~~~~~~~~~~~~~~~~~~~~~~~~~~~~~~~
-=== DO NOT EDIT THIS FILE! ===-
Path: ...\Roxette - One Wish CD5
01 -=- CDImage.wav -=- CDDA (100%)
190127764



Roxette - Reveal (Remix Version)
#777Год выпуска диска: 2007
Производитель диска: Europe
Трэклист:
1 Reveal (The Attic Remix) (3:29) Remix - The Attic
2 Reveal (Kleerup Remix) (3:34) Remix - Kleerup
3 Reveal (Single Version) (3:44)
4 Video One Wish (3:10)
Доп. информация:
EMI Music (Sweden); 0946 388416-0 9
Код:
Exact Audio Copy V0.99 prebeta 3 from 28. July 2007
EAC extraction logfile from 7. December 2008, 13:10
Roxette / Reveal (Remix Version)
Used drive  : PIONEER DVD-RW  DVR-215D   Adapter: 3  ID: 0
Read mode               : Secure
Utilize accurate stream : Yes
Defeat audio cache      : Yes
Make use of C2 pointers : No
Read offset correction                      : 48
Overread into Lead-In and Lead-Out          : No
Fill up missing offset samples with silence : Yes
Delete leading and trailing silent blocks   : No
Null samples used in CRC calculations       : Yes
Used interface                              : Native Win32 interface for Win NT & 2000
Used output format : Internal WAV Routines
Sample format      : 44.100 Hz; 16 Bit; Stereo
TOC of the extracted CD
     Track |   Start  |  Length  | Start sector | End sector
    ---------------------------------------------------------
        1  |  0:00.00 |  3:30.08 |         0    |    15757
        2  |  3:30.08 |  3:36.28 |     15758    |    31985
        3  |  7:06.36 |  3:44.11 |     31986    |    48796
        4  | 13:22.47 |  3:42.48 |     60197    |    76894
Range status and errors
Selected range
     Filename C:\Roxette - Reveal (Remix Version) CD5\CDImage.wav
     Peak level 98.8 %
     Range quality 100.0 %
     Test CRC 784DA488
     Copy CRC 784DA488
     Copy OK
No errors occurred
AccurateRip summary
Track  1  not present in database
Track  2  not present in database
Track  3  not present in database
None of the tracks are present in the AccurateRip database
End of status report
Код:
AUDIOCHECKER v2.0 beta (build 457) - by Dester - opdester@freemail.hu
~~~~~~~~~~~~~~~~~~~~~~~~~~~~~~~~~~
-=== DO NOT EDIT THIS FILE! ===-
Path: ...\Roxette - Reveal (Remix Version) CD5
01 -=- CDImage.wav -=- CDDA (100%)
190127764
Код:
[b]Формат[/b]: MPEG
[b]Видео кодек[/b]: MPEG1
[b]Аудио кодек[/b]: MPEG 2.0
[b]Видео[/b]: MPEG1 (384 x 288) 25 frames per second 1150000 bits/sec
[b]Аудио[/b]: MPEG 2.0 44100hz, 16bps, 2ch (224kbps)




Roxette - The Centre Of The Heart
#777Год выпуска диска: 2001
Производитель диска: Europe
Трэклист:
1 The Centre Of The Heart (3:22)
2 Entering Your Heart (3:59
Доп. информация:
EMI Music (Sweden); 7243 8 79171-2 5
Код:
Exact Audio Copy V0.99 prebeta 4 from 23. January 2008
EAC extraction logfile from 7. December 2008, 14:36
Roxette / The Centre Of The Heart
Used drive  : PLEXTOR CD-R   PX-W4824A   Adapter: 1  ID: 1
Read mode               : Secure
Utilize accurate stream : Yes
Defeat audio cache      : Yes
Make use of C2 pointers : No
Read offset correction                      : 98
Overread into Lead-In and Lead-Out          : No
Fill up missing offset samples with silence : Yes
Delete leading and trailing silent blocks   : No
Null samples used in CRC calculations       : Yes
Used interface                              : Installed external ASPI interface
Used output format : Internal WAV Routines
Sample format      : 44.100 Hz; 16 Bit; Stereo
TOC of the extracted CD
     Track |   Start  |  Length  | Start sector | End sector
    ---------------------------------------------------------
        1  |  0:00.00 |  3:22.52 |         0  |       15201
        2  |  3:22.52 |  3:59.17 |     15202  |       33143
Range status and errors
Selected range
   Filename H:\Roxette - The Centre Of The Heart CD5\CDImage.wav
   Peak level 99.1 %
   Range quality 100.0 %
   Test CRC F7FBA8DF
   Copy CRC F7FBA8DF
   Copy OK
No errors occurred
AccurateRip summary
Track  1  not present in database
Track  2  not present in database
None of the tracks are present in the AccurateRip database
End of status report
Код:
AUDIOCHECKER v2.0 beta (build 457) - by Dester - opdester@freemail.hu
~~~~~~~~~~~~~~~~~~~~~~~~~~~~~~~~~~
-=== DO NOT EDIT THIS FILE! ===-
Path: ...\Roxette - The Centre Of The Heart CD5
01 -=- CDImage.wav -=- CDDA (100%)
190127764



Roxette - You Don't Understand Me
#777Год выпуска диска: 1995
Производитель диска: Holland
Трэклист:
1 You Don't Understand Me (4:29)
2 Crazy About You (3:59)
3 Harleys & Indians (Riders In The Sky) (3:44)
Доп. информация:
EMI Music (Holland); 7243 8 65189-2 7
Код:
Exact Audio Copy V0.99 prebeta 4 from 23. January 2008
EAC extraction logfile from 7. December 2008, 14:47
Roxette / You Don't Understand Me
Used drive  : PLEXTOR CD-R   PX-W4824A   Adapter: 1  ID: 1
Read mode               : Secure
Utilize accurate stream : Yes
Defeat audio cache      : Yes
Make use of C2 pointers : No
Read offset correction                      : 98
Overread into Lead-In and Lead-Out          : No
Fill up missing offset samples with silence : Yes
Delete leading and trailing silent blocks   : No
Null samples used in CRC calculations       : Yes
Used interface                              : Installed external ASPI interface
Used output format : Internal WAV Routines
Sample format      : 44.100 Hz; 16 Bit; Stereo
TOC of the extracted CD
     Track |   Start  |  Length  | Start sector | End sector
    ---------------------------------------------------------
        1  |  0:00.00 |  4:29.15 |         0  |       20189
        2  |  4:29.15 |  3:59.10 |     20190  |       38124
        3  |  8:28.25 |  3:44.50 |     38125  |       54974
Range status and errors
Selected range
   Filename H:\Roxette - You Don't Understand Me CD5\CDImage.wav
   Peak level 100.0 %
   Range quality 100.0 %
   Test CRC 71F46FB8
   Copy CRC 71F46FB8
   Copy OK
No errors occurred
AccurateRip summary
Track  1  accurately ripped (confidence 9)  [A9C48FE8]
Track  2  accurately ripped (confidence 9)  [225B80BC]
Track  3  accurately ripped (confidence 9)  [282E781C]
All tracks accurately ripped
End of status report
Код:
AUDIOCHECKER v2.0 beta (build 457) - by Dester - opdester@freemail.hu
~~~~~~~~~~~~~~~~~~~~~~~~~~~~~~~~~~
-=== DO NOT EDIT THIS FILE! ===-
Path: ...\Roxette - You Don't Understand Me CD5
01 -=- CDImage.wav -=- CDDA (100%)
190127764

Прошу обратить внимание - я могу сидировать на скорости 10+ mbit/s c 20:00 по 7:00 по будним дням и в выходные круглосуточно. В рабочее время сидировать могу на 512 kbit/s

Правила, инструкции, FAQ!!!
Торрент  Добавлен [26 мар 2019, 20:36] Скачать торрент Магнет ссылка
Скачать торрент
[ Размер 23.04 КБ / Просмотров 3 ]

Статус
Проверен 
 
Размер  907.95 МБ
Приватный: Нет (DHT включён)
.torrent скачан  0
 


     Отправить личное сообщение
   
Страница 1 из 1
Показать сообщения за:  Поле сортировки  
Начать новую тему Ответить на тему


Сейчас этот форум просматривают: нет зарегистрированных пользователей и гости: 0


Вы не можете начинать темы
Вы не можете отвечать на сообщения
Вы не можете редактировать свои сообщения
Вы не можете удалять свои сообщения
Вы не можете добавлять вложения

Перейти:  
cron