Начать новую тему Ответить на тему
Статистика раздачи
Размер: 626.2 МБ | Добавлен: 26 мар 2019, 20:12 | Скачали: 0
Сидеров: 0  [0 байт/сек]    Личеров: 0  [0 байт/сек]
Пред. тема | След. тема 

Автор
Сообщение

СообщениеДобавлено: 26 мар 2019, 20:12 

Ответить с цитатой 

Roxette / History
Жанр: Pop / Rock
Страна-производитель диска: Россия
Год издания диска: 2000
Страна: Швеция
Аудио кодек: FLAC (*.flac)
Тип рипа: image+.cue
Битрейт аудио: lossless
Продолжительность: 01:20:11
Источник (релизер): Личный CD
Наличие сканов в содержимом раздачи: нет
Треклист:
01. Stars
02. The look
03. Sleeping in by car (single edit)
04. Listen to your heart (swedish single edit)
05. Joyride (single edit)
06. Anyone
07. You don't understand me
08. Dangerous (single version)
09. Crash! Boom! Bang! (single edit)
10. 7 twenty 7
11. Fading like a flower (every time you leave)
12. I don't want to get hurt
13. She doesn't live here anymore
14. How do you do!
15. It must have been love (from the pretty woman-soundtrack)
16. June afternoon
17. Spending my time
18. The big L.
19. Almost unreal
20. Vulnerable (single edit)
Код:
[pre]Exact Audio Copy V0.99 prebeta 5 from 4. May 2009
Отчёт EAC об извлечении, выполненном 20. мая 2011, 22:07
ROXETTE / History 2000
Дисковод: PIONEER DVD-RW DVR-111D Adapter: 0 ID: 1
Режим чтения : Достоверность
Использование точного потока : Да
Отключение кэша аудио : Да
Использование указателей C2 : Нет
Коррекция смещения при чтении : 48
Способность читать области Lead-in и Lead-out : Нет
Заполнение пропущенных сэмплов тишиной : Да
Удаление блоков с тишиной в начале и конце : Нет
При вычислениях CRC использовались нулевые сэмплы : Нет
Интерфейс : Встроенный Win32-интерфейс для Win NT/2000
Выходной формат : Пользовательский кодировщик
Выбранный битрейт : 1024 kBit/s
Качество : Высокий
Добавление ID3-тэга : Нет
Утилита сжатия : C:\Program Files\Exact Audio Copy\FLAC\FLAC.EXE
Дополнительные параметры : -V -8 -T "artist=%a" -T "title=%t" -T "album=%g" -T "date=%y" -T "tracknumber=%n" -T "genre=%m" %s
TOC извлечённого CD
Трек | Старт | Длительность | Начальный сектор | Конечный сектор
---------------------------------------------------------------------
1 | 0:00.00 | 3:54.03 | 0 | 17552
2 | 3:54.03 | 3:45.39 | 17553 | 34466
3 | 7:39.42 | 3:30.54 | 34467 | 50270
4 | 11:10.21 | 4:59.52 | 50271 | 72747
5 | 16:09.73 | 3:57.40 | 72748 | 90562
6 | 20:07.38 | 4:25.32 | 90563 | 110469
7 | 24:32.70 | 4:17.62 | 110470 | 129806
8 | 28:50.57 | 3:43.00 | 129807 | 146531
9 | 32:33.57 | 4:24.50 | 146532 | 166381
10 | 36:58.32 | 3:48.41 | 166382 | 183522
11 | 40:46.73 | 3:39.55 | 183523 | 200002
12 | 44:26.53 | 4:04.24 | 200003 | 218326
13 | 48:31.02 | 4:01.69 | 218327 | 236470
14 | 52:32.71 | 3:04.08 | 236471 | 250278
15 | 55:37.04 | 4:13.54 | 250279 | 269307
16 | 59:50.58 | 3:58.40 | 269308 | 287197
17 | 63:49.23 | 4:24.30 | 287198 | 307027
18 | 68:13.53 | 4:17.62 | 307028 | 326364
19 | 72:31.40 | 3:14.58 | 326365 | 340972
20 | 75:46.23 | 4:24.60 | 340973 | 360832
Характеристики диапазона извлечения и сообщения об ошибках
Выбранный диапазон
Имя файла C:\Users\Администратор\Desktop\Новая папка\ROXETTE - History 2000.wav
Пиковый уровень 100.0 %
Качество диапазона 99.9 %
CRC копии 550DACC2
Копирование... OK
Ошибок не произошло
Конец отчёта
Код:
[/pre]
Код:
AUDIOCHECKER v2.0 beta (build 457) - by Dester - opdester@freemail.hu
~~~~~~~~~~~~~~~~~~~~~~~~~~~~~~~~~~
-=== НЕ РЕДАКТИРУЙТЕ ЭТОТ ФАЙЛ! ===-
Путь: ...\Roxette-History.2000.Flac.Cue.Lossless
1 -=- ROXETTE - History 2000.flac -=- CDDA (100%)
59723076
Поп-дуэт Пера Гессла (автор текстов песен и музыки, гитара, губная гармошка) и Мари Фредрикссон (вокал, рояль), традиционно исполняющий свои песни на английском языке, образовался еще в 1984 году. Roxette взошел на вершину популярности, записав в 1989 году песню «The Look», ставшую хитом и долгое время возглавлявшую музыкальные чарты. С тех пор Roxette продолжили создавать хит за хитом.
Правила, инструкции, FAQ!!!
Торрент  Добавлен [26 мар 2019, 20:12] Скачать торрент Магнет ссылка
Скачать торрент
[ Размер 12.84 КБ / Просмотров 2 ]

Статус
Проверен 
 
Размер  626.2 МБ
Приватный: Нет (DHT включён)
.torrent скачан  0
 


     Отправить личное сообщение
   
Страница 1 из 1
Показать сообщения за:  Поле сортировки  
Начать новую тему Ответить на тему


Сейчас этот форум просматривают: нет зарегистрированных пользователей и гости: 0


Вы не можете начинать темы
Вы не можете отвечать на сообщения
Вы не можете редактировать свои сообщения
Вы не можете удалять свои сообщения
Вы не можете добавлять вложения

Перейти:  
cron