Начать новую тему Ответить на тему
Статистика раздачи
Размер: 772.96 МБ | Добавлен: 26 мар 2019, 20:06 | Скачали: 1
Сидеров: 4  [0 байт/сек]    Личеров: 1  [0 байт/сек]
Пред. тема | След. тема 

Автор
Сообщение

СообщениеДобавлено: 26 мар 2019, 20:06 

Ответить с цитатой 

Roxette - Don't Bore Us - Get To The Chorus! (Japan)
Жанр: Pop/Rock
Год выпуска диска: 1997
Производитель диска: Made in Japan Toshiba EMI Ltd TOCP-8678
Аудио кодек: FLAC
Тип рипа: image+.cue
Битрейт аудио: lossless
Продолжительность: 1:15:17.29
Трэклист:
CD: roxette - roxette's greatest hits
01. june afternoon [0:04:14.29]
02. you don't understand me [0:04:28.40]
03. the look [0:03:57.04]
04. dressed for success [0:04:12.66]
05. listen to your heart [0:05:14.66]
06. dangerous [0:03:48.69]
07. i must have been love [0:04:19.04]
08. joyride [0:04:00.22]
09. fading like aflower (every time you leave) [0:03:52.90]
10. the big L [0:04:29.29]
11. spending my time [0:04:38.06]
12. how do you do [0:03:12.10]
13. almost unreal [0:03:59.80]
14. sleeping in my car [0:03:33.16]
15. crash! boon! bang! [0:04:26.33]
16. vulnerable [0:04:28.53]
17. she doesn't leve here anymore [0:04:05.06]
18. i don't want to get hurt [0:04:17.00]
Total: 1:15:17.29
#777#777
Код:
Exact Audio Copy V0.99 prebeta 5 from 4. May 2009
EAC extraction logfile from 16. November 2009, 21:23
roxette / roxette's greatest hits
Used drive  : PLEXTOR DVDR   PX-716A   Adapter: 0  ID: 0
Read mode               : Secure
Utilize accurate stream : Yes
Defeat audio cache      : Yes
Make use of C2 pointers : No
Read offset correction                      : 30
Overread into Lead-In and Lead-Out          : Yes
Fill up missing offset samples with silence : Yes
Delete leading and trailing silent blocks   : No
Null samples used in CRC calculations       : Yes
Used interface                              : Native Win32 interface for Win NT & 2000
Used output format              : User Defined Encoder
Selected bitrate                : 1024 kBit/s
Quality                         : High
Add ID3 tag                     : No
Command line compressor         : C:\Program Files\FLAC\flac.exe
Additional command line options : -8 -V -T "ARTIST=%a" -T "TITLE=%t" -T "ALBUM=%g" -T "DATE=%y" -T "TRACKNUMBER=%n" -T "GENRE=%m" -T "COMMENT=EAC FLAC -8" %s
TOC of the extracted CD
     Track |   Start  |  Length  | Start sector | End sector
    ---------------------------------------------------------
        1  |  0:00.00 |  4:14.22 |         0    |    19071
        2  |  4:14.22 |  4:28.30 |     19072    |    39201
        3  |  8:42.52 |  3:57.03 |     39202    |    56979
        4  | 12:39.55 |  4:12.50 |     56980    |    75929
        5  | 16:52.30 |  5:14.50 |     75930    |    99529
        6  | 22:07.05 |  3:48.52 |     99530    |   116681
        7  | 25:55.57 |  4:19.03 |    116682    |   136109
        8  | 30:14.60 |  4:00.17 |    136110    |   154126
        9  | 34:15.02 |  3:52.68 |    154127    |   171594
       10  | 38:07.70 |  4:29.22 |    171595    |   191791
       11  | 42:37.17 |  4:38.05 |    191792    |   212646
       12  | 47:15.22 |  3:12.08 |    212647    |   227054
       13  | 50:27.30 |  3:59.60 |    227055    |   245039
       14  | 54:27.15 |  3:33.12 |    245040    |   261026
       15  | 58:00.27 |  4:26.25 |    261027    |   281001
       16  | 62:26.52 |  4:28.40 |    281002    |   301141
       17  | 66:55.17 |  4:05.05 |    301142    |   319521
       18  | 71:00.22 |  4:17.00 |    319522    |   338796
Range status and errors
Selected range
     Filename E:\Roxette - Don't Bore Us - Get To The Chorus! (Japan)\roxette - roxette's greatest hits.wav
     Peak level 100.0 %
     Range quality 100.0 %
     Test CRC 687F141C
     Copy CRC 687F141C
     Copy OK
No errors occurred
AccurateRip summary
Track  1  accurately ripped (confidence 1)  [08E86295]
Track  2  accurately ripped (confidence 1)  [6A227539]
Track  3  accurately ripped (confidence 1)  [CC454F22]
Track  4  accurately ripped (confidence 1)  [09966571]
Track  5  accurately ripped (confidence 1)  [DE0005C0]
Track  6  accurately ripped (confidence 1)  [394B4615]
Track  7  cannot be verified as accurate (confidence 1)  [A2D2FCAB], AccurateRip returned [AC79D6CA]
Track  8  cannot be verified as accurate (confidence 1)  [5A7E0B95], AccurateRip returned [7CE6CCA3]
Track  9  accurately ripped (confidence 1)  [8DEABB67]
Track 10  cannot be verified as accurate (confidence 1)  [4886FFF5], AccurateRip returned [DA69BFC3]
Track 11  cannot be verified as accurate (confidence 1)  [D639051E], AccurateRip returned [3319AD13]
Track 12  accurately ripped (confidence 1)  [34F775F2]
Track 13  cannot be verified as accurate (confidence 1)  [073D159D], AccurateRip returned [D8F84025]
Track 14  cannot be verified as accurate (confidence 1)  [CC282EB8], AccurateRip returned [46182EB8]
Track 15  accurately ripped (confidence 1)  [8F47664E]
Track 16  accurately ripped (confidence 1)  [71B52BD2]
Track 17  accurately ripped (confidence 1)  [D05EB4C4]
Track 18  accurately ripped (confidence 1)  [EDA4B13C]
12 track(s) accurately ripped
 6 track(s) could not be verified as accurate
Some tracks could not be verified as accurate
End of status report
Рипы (ЕАС) с оригинального CD из моей коллекции. Сканы 600dpi .PNG в комплекте.
Правила, инструкции, FAQ!!!
Торрент  Добавлен [26 мар 2019, 20:06] Скачать торрент Магнет ссылка
Скачать торрент
[ Размер 16.8 КБ / Просмотров 16 ]

Статус
Проверен 
 
Размер  772.96 МБ
Приватный: Нет (DHT включён)
.torrent скачан  1
 


     Отправить личное сообщение
   
Страница 1 из 1
Показать сообщения за:  Поле сортировки  
Начать новую тему Ответить на тему


Сейчас этот форум просматривают: нет зарегистрированных пользователей и гости: 0


Вы не можете начинать темы
Вы не можете отвечать на сообщения
Вы не можете редактировать свои сообщения
Вы не можете удалять свои сообщения
Вы не можете добавлять вложения

Перейти:  
cron