Начать новую тему Ответить на тему
Статистика раздачи
Размер: 533.96 МБ | Добавлен: 26 мар 2019, 20:04 | Скачали: 0
Сидеров: 1  [0 байт/сек]    Личеров: 0  [0 байт/сек]
Пред. тема | След. тема 

Автор
Сообщение

СообщениеДобавлено: 26 мар 2019, 20:04 

Ответить с цитатой 

Roxette - Dance Collection
Жанр: Pop-Rock
Год выпуска диска: 1997
Производитель диска: Bulgaria
Аудио кодек: APE
Тип рипа: image+.cue
Битрейт аудио: lossless
Продолжительность: 74:09
Трэклист:
01. The Look
02. Dangerous
03. Joyride
04. The Big L.
05. June Afternoon
06. Dressed For Success
07. How Do You Do
08. She Doesn`t Live Here Anymore
09. Chances
10. Hotblooded
11. Keep Me Waiting
12. Run To You
13. Knocking On Every Door
14. Soul Deep
15. Church Of Your Heart
16. Come Back (Before You Leave)
17. Things Will Never Be The Same
18. You Don`t Understand Me
19. Sleeping In My Car
Доп. информация:
Exact Audio Copy V0.99 prebeta 4 from 23. January 2008
Отчёт EAC об извлечении, выполненном 1. марта 2009, 12:17
Roxette / Dance Collection
Дисковод: ASUS DRW-2014L1T Adapter: 2 ID: 0
Режим чтения : Достоверность
Использование точного потока : Да
Отключение кэша аудио : Да
Использование указателей C2 : Нет
Коррекция смещения при чтении : 6
Способность читать области Lead-in и Lead-out : Нет
Заполнение пропущенных сэмплов тишиной : Да
Удаление блоков с тишиной в начале и конце : Нет
При вычислениях CRC использовались нулевые сэмплы : Да
Интерфейс : Встроенный Win32-интерфейс для Win NT/2000
Выходной формат : Внутренние WAV-операции
Формат сэмплов : 44.100 Гц; 16 бит; стерео
TOC извлечённого CD
Трек | Старт | Длительность | Начальный сектор | Конечный сектор
---------------------------------------------------------------------
1 | 0:00.00 | 3:57.40 | 0 | 17814
2 | 3:57.40 | 3:48.25 | 17815 | 34939
3 | 7:45.65 | 4:00.60 | 34940 | 52999
4 | 11:46.50 | 4:30.25 | 53000 | 73274
5 | 16:17.00 | 4:13.22 | 73275 | 92271
6 | 20:30.22 | 4:14.08 | 92272 | 111329
7 | 24:44.30 | 3:13.15 | 111330 | 125819
8 | 27:57.45 | 4:05.00 | 125820 | 144194
9 | 32:02.45 | 4:58.17 | 144195 | 166561
10 | 37:00.62 | 3:19.25 | 166562 | 181511
11 | 40:20.12 | 3:16.43 | 181512 | 196254
12 | 43:36.55 | 3:39.50 | 196255 | 212729
13 | 47:16.30 | 3:59.07 | 212730 | 230661
14 | 51:15.37 | 3:34.38 | 230662 | 246749
15 | 54:50.00 | 3:17.00 | 246750 | 261524
16 | 58:07.00 | 4:28.35 | 261525 | 281659
17 | 62:35.35 | 4:26.52 | 281660 | 301661
18 | 67:02.12 | 3:34.10 | 301662 | 317721
19 | 70:36.22 | 3:33.53 | 317722 | 333749
Характеристики диапазона извлечения и сообщения об ошибках
Выбранный диапазон
Имя файла G:\Torrents\Roxette-Dance Collection\Roxette - Dance Collection.wav
Пиковый уровень 99.9 %
Качество диапазона 99.9 %
CRC копии F711C427
Копирование... OK
Ошибок не произошло
AccurateRip: сводка
Трек 1 нет в базе данных
Трек 2 точность не определена (достоверность 1) [545D1AEE], AccurateRip вернул [BE636AEF]
Трек 3 точность не определена (достоверность 1) [C013A165], AccurateRip вернул [174CD7F6]
Трек 4 точность не определена (достоверность 1) [4E6CB86C], AccurateRip вернул [A9900346]
Трек 5 точность не определена (достоверность 1) [54B76036], AccurateRip вернул [639AA30E]
Трек 6 точность не определена (достоверность 1) [7EE71700], AccurateRip вернул [6FB99C42]
Трек 7 точность не определена (достоверность 1) [8A48D2DD], AccurateRip вернул [9DB00CB7]
Трек 8 точность не определена (достоверность 1) [02FE54D4], AccurateRip вернул [333F6683]
Трек 9 точность не определена (достоверность 1) [43997046], AccurateRip вернул [FB98198A]
Трек 10 точность не определена (достоверность 1) [481C57F9], AccurateRip вернул [966DAEA8]
Трек 11 точность не определена (достоверность 1) [6562A5BE], AccurateRip вернул [A18504B5]
Трек 12 точность не определена (достоверность 1) [2DA94BEB], AccurateRip вернул [3508CB43]
Трек 13 точность не определена (достоверность 1) [F47046A8], AccurateRip вернул [FAEFEA00]
Трек 14 точность не определена (достоверность 1) [CF8BC88F], AccurateRip вернул [F18198CA]
Трек 15 точность не определена (достоверность 1) [CD985478], AccurateRip вернул [FE604E8E]
Трек 16 точность не определена (достоверность 1) [064B53EE], AccurateRip вернул [5810ACA0]
Трек 17 точность не определена (достоверность 1) [DF908E1D], AccurateRip вернул [E7ECEDA9]
Трек 18 точность не определена (достоверность 1) [1A7E46FD], AccurateRip вернул [6A4F5A7A]
Трек 19 точность не определена (достоверность 1) [7DB8A858], AccurateRip вернул [B5E2C2C6]
18 трек(и) не удалось проверить на точность
1 трек(и) не содержатся в базе AccurateRip
Ни один трек не прошёл проверки на точность
В вашей базе может быть иной вариант штамповки диска
Конец отчёта
Правила, инструкции, FAQ!!!
Торрент  Добавлен [26 мар 2019, 20:04] Скачать торрент Магнет ссылка
Скачать торрент
[ Размер 11.42 КБ / Просмотров 1 ]

Статус
Проверен 
 
Размер  533.96 МБ
Приватный: Нет (DHT включён)
.torrent скачан  0
 


     Отправить личное сообщение
   
Страница 1 из 1
Показать сообщения за:  Поле сортировки  
Начать новую тему Ответить на тему


Сейчас этот форум просматривают: нет зарегистрированных пользователей и гости: 0


Вы не можете начинать темы
Вы не можете отвечать на сообщения
Вы не можете редактировать свои сообщения
Вы не можете удалять свои сообщения
Вы не можете добавлять вложения

Перейти:  
cron