Начать новую тему Ответить на тему
Статистика раздачи
Размер: 100.11 МБ | Добавлен: 26 мар 2019, 20:50 | Скачали: 0
Сидеров: 1  [0 байт/сек]    Личеров: 0  [0 байт/сек]
Пред. тема | След. тема 

Автор
Сообщение

СообщениеДобавлено: 26 мар 2019, 20:50 

Ответить с цитатой 

Roxette - Crash! Boom! Bang! (Netherlands CDM)
Жанр: Pop / Rock
Год выпуска диска: 1994
Производитель диска: Netherlands
Аудио кодек: APE
Тип рипа: image+.cue
Битрейт аудио: lossless
Продолжительность: 00:13:52
Трэклист:
1 Crash! Boom! Bang!
2 Joyride (Live)
3 Run To You (Demo, December '92)
Доп. информация:
Копия фирменного диска из моей коллекции.
Полная подборка сканов внутри раздачи.
Код:
Exact Audio Copy V0.99 prebeta 3 from 28. July 2007
Отчёт EAC об извлечении, выполненном 26. мая 2009, 21:28
Roxette / Crash! Boom! Bang!
Дисковод: PIONEER DVD-RW  DVR-112D   Adapter: 1  ID: 0
Режим чтения                 : Достоверность
Использование точного потока : Да
Отключение кэша аудио        : Да
Использование указателей C2  : Нет
Коррекция смещения при чтении                     : 48
Способность читать области Lead-in и Lead-out     : Нет
Заполнение пропущенных сэмплов тишиной            : Да
Удаление блоков с тишиной в начале и конце        : Нет
При вычислениях CRC использовались нулевые сэмплы : Да
Интерфейс                                         : Встроенный Win32-интерфейс для Win NT/2000
Выходной формат : Внутренние WAV-операции
Формат сэмплов  : 44.100 Гц; 16 бит; стерео
TOC извлечённого CD
     Трек |   Старт  | Длительность | Начальный сектор | Конечный сектор
    ---------------------------------------------------------------------
       1  |  0:00.00 |    4:28.10   |           0      |      20109
       2  |  4:28.10 |    5:37.10   |       20110      |      45394
       3  | 10:05.20 |    3:46.72   |       45395      |      62416
Характеристики диапазона извлечения и сообщения об ошибках
Выбранный диапазон
     Имя файла J:\0000000000003\Roxette - 1994 - Crash! Boom! Bang! CD5\CDImage.wav
     Пиковый уровень 100.0 %
     Качество диапазона 100.0 %
     CRC копии FD4424B0
     Копирование... OK
Ошибок не произошло
AccurateRip: сводка
Трек  1  точное извлечение (доверие 6)  [15C221B3]
Трек  2  точное извлечение (доверие 6)  [7F0E5BAB]
Трек  3  точное извлечение (доверие 5)  [5B237AA4]
Все треки извлечены точно
Конец отчёта
Не забываем нажать на "сказать "спасибо", а можно просто + поставить - и только после этого скачивать
и я постараюсь еще чем-нибудь вас удивить из своей коллекции фирменных дисков
Правила, инструкции, FAQ!!!
Торрент  Добавлен [26 мар 2019, 20:50] Скачать торрент Магнет ссылка
Скачать торрент
[ Размер 16.33 КБ / Просмотров 2 ]

Статус
Проверен 
 
Размер  100.11 МБ
Приватный: Нет (DHT включён)
.torrent скачан  0
 


     Отправить личное сообщение
   
Страница 1 из 1
Показать сообщения за:  Поле сортировки  
Начать новую тему Ответить на тему


Сейчас этот форум просматривают: нет зарегистрированных пользователей и гости: 0


Вы не можете начинать темы
Вы не можете отвечать на сообщения
Вы не можете редактировать свои сообщения
Вы не можете удалять свои сообщения
Вы не можете добавлять вложения

Перейти:  
cron