Начать новую тему Ответить на тему
Статистика раздачи
Размер: 638.74 МБ | Добавлен: 26 мар 2019, 20:37 | Скачали: 0
Сидеров: 2  [0 байт/сек]    Личеров: 0  [0 байт/сек]
Пред. тема | След. тема 

Автор
Сообщение

СообщениеДобавлено: 26 мар 2019, 20:37 

Ответить с цитатой 

Roxette / Charm School
Жанр: Pop-Rock
Страна-производитель диска
: Russia
Год издания диска: 2011
Издатель (лейбл): EMI/Gala Records
Страна: Sweden
Аудио кодек: FLAC (*.flac)
Тип рипа: image+.cue
Битрейт аудио: lossless
Продолжительность: 41:02
Источник (релизер): CD из моей коллекции
Наличие сканов в содержимом раздачи: да
Треклист:
01 Way Out
02 No One Makes It On Her Own
03 She's Got Nothing On (But The Radio)
04 Speak To Me
05 I'm Glad You Called
06 Only When I Dream
07 Dream On
08 Big Black Cadillac
09 In My Own Way
10 After All
11 Happy On The Outside
12 Sitting On Top Of The World
Код:
Exact Audio Copy V0.99 prebeta 5 from 4. May 2009
EAC extraction logfile from 2. March 2011, 10:20
Roxette / Charm School
Used drive  : ASUS    DRW-24B1ST   Adapter: 3  ID: 0
Read mode               : Secure
Utilize accurate stream : Yes
Defeat audio cache      : Yes
Make use of C2 pointers : No
Read offset correction                      : 6
Overread into Lead-In and Lead-Out          : No
Fill up missing offset samples with silence : Yes
Delete leading and trailing silent blocks   : No
Null samples used in CRC calculations       : Yes
Used interface                              : Native Win32 interface for Win NT & 2000
Used output format              : User Defined Encoder
Selected bitrate                : 128 kBit/s
Quality                         : High
Add ID3 tag                     : No
Command line compressor         : C:\Program Files\Exact Audio Copy\flac.exe
Additional command line options : -8 -V -T "ARTIST=%a" -T "TITLE=%t" -T "ALBUM=%g" -T "DATE=%y" -T "TRACKNUMBER=%n" -T "GENRE=%m" -T "COMMENT=EAC FLAC -8" %s
TOC of the extracted CD
     Track |   Start  |  Length  | Start sector | End sector
    ---------------------------------------------------------
        1  |  0:00.00 |  2:46.11 |         0    |    12460
        2  |  2:46.11 |  3:43.73 |     12461    |    29258
        3  |  6:30.09 |  3:34.31 |     29259    |    45339
        4  | 10:04.40 |  3:42.08 |     45340    |    61997
        5  | 13:46.48 |  2:48.01 |     61998    |    74598
        6  | 16:34.49 |  3:51.74 |     74599    |    91997
        7  | 20:26.48 |  3:09.05 |     91998    |   106177
        8  | 23:35.53 |  3:05.65 |    106178    |   120117
        9  | 26:41.43 |  3:30.40 |    120118    |   135907
       10  | 30:12.08 |  3:15.43 |    135908    |   150575
       11  | 33:27.51 |  3:39.41 |    150576    |   167041
       12  | 37:07.17 |  3:55.57 |    167042    |   184723
Range status and errors
Selected range
     Filename D:\TORRENTS\MY TORRENT-DISTRIBUTIONS\Roxette - Charm School [2011]\Roxette - Charm School.wav
     Peak level 99.8 %
     Range quality 100.0 %
     Test CRC EB1AF47B
     Copy CRC EB1AF47B
     Copy OK
No errors occurred
End of status report
!!!Качественные сканы (*.png, 600 dpi) ждут вас внутри! Приятного прослушивания!!!
Правила, инструкции, FAQ!!!
Торрент  Добавлен [26 мар 2019, 20:37] Скачать торрент Магнет ссылка
Скачать торрент
[ Размер 13.74 КБ / Просмотров 8 ]

Статус
Проверен 
 
Размер  638.74 МБ
Приватный: Нет (DHT включён)
.torrent скачан  0
 


     Отправить личное сообщение
   
Страница 1 из 1
Показать сообщения за:  Поле сортировки  
Начать новую тему Ответить на тему


Сейчас этот форум просматривают: нет зарегистрированных пользователей и гости: 0


Вы не можете начинать темы
Вы не можете отвечать на сообщения
Вы не можете редактировать свои сообщения
Вы не можете удалять свои сообщения
Вы не можете добавлять вложения

Перейти:  
cron