Начать новую тему Ответить на тему
Статистика раздачи
Размер: 220.44 МБ | Добавлен: 26 мар 2019, 20:04 | Скачали: 0
Сидеров: 0  [0 байт/сек]    Личеров: 0  [0 байт/сек]
Пред. тема | След. тема 

Автор
Сообщение

СообщениеДобавлено: 26 мар 2019, 20:04 

Ответить с цитатой 


RosGos

Canzoni nella notte





• Жанр: Pop-Rock
• Носитель: WEB
• Год издания: 2018
• Издатель: MelaVerde Records
• Страна: Italy
• Аудиокодек: FLAC (*.flac)
• Тип рипа: tracks
• Продолжительность: 00:36:44
• Источник (спасибо): NBMus
• WEB релиз: bandcamp
• Наличие сканов: front

01 - Viaggiarti il cuore (00:03:21)
02 - Scintille (00:02:35)
03 - Parole (00:03:25)
04 - Ovunque, sei (00:02:23)
05 - Resta qui con me (00:03:05)
06 - Riccioli (00:03:32)
07 - L'addio (00:04:23)
08 - Luvi (00:03:34)
09 - Due lame (00:08:05)
10 - Luce (Ninna nanna) (00:02:15)



Код:
foobar2000 1.3.17 / Замер динамического диапазона (DR) 1.1.1
Дата отчёта:  2018-10-13 14:08:12
--------------------------------------------------------------------------------
Анализ:   RosGos / Canzoni nella notte
--------------------------------------------------------------------------------
DR         Пики         RMS           Продолжительность трека
--------------------------------------------------------------------------------
DR6       -0.11 дБ    -8.45 дБ      3:22 01-Viaggiarti il cuore
DR5       -0.12 дБ    -7.53 дБ      2:36 02-Scintille
DR6       -0.10 дБ    -8.57 дБ      3:26 03-Parole
DR7       -0.16 дБ   -11.00 дБ      2:23 04-Ovunque, sei
DR7       -0.12 дБ    -9.60 дБ      3:06 05-Resta qui con me
DR5       -0.10 дБ    -6.15 дБ      3:33 06-Riccioli
DR6       -0.12 дБ    -8.49 дБ      4:24 07-L'addio
DR7       -0.12 дБ    -9.61 дБ      3:34 08-Luvi
DR5       -0.10 дБ    -8.04 дБ      8:06 09-Due lame
DR6       -0.12 дБ    -9.70 дБ      2:16 10-Luce (Ninna nanna)
--------------------------------------------------------------------------------
Количество треков: 10
Реальные значения DR: DR6
Частота:   44100 Гц
Каналов:   2
Разрядность:   16
Битрейт:   684 кбит/с
Кодек:   FLAC
================================================================================

Код:
-----------------------
DON'T MODIFY THIS FILE
-----------------------
PERFORMER: auCDtect Task Manager, ver. 1.5.1RC3 build 1.5.1.4
Copyright (c) 2008-2010 y-soft. All rights reserved
[url=http://y-soft.org]http://y-soft.org[/url]
ANALYZER: auCDtect: CD records authenticity detector, version 0.8.2
Copyright (c) 2004 Oleg Berngardt. All rights reserved.
Copyright (c) 2004 Alexander Djourik. All rights reserved.
FILE: 10.flac
  Size: 11948258 Hash: 52F561867EE78E72A1E07B9E1C38BD31 Accuracy: -m0
  Conclusion: CDDA 87%
  Signature: 73297DA7F1F4F31778B2B514E432330B75BA57A7
FILE: 09.flac
  Size: 48471003 Hash: 74CBF1B9F18D18A9AA09B1A7779A387A Accuracy: -m0
  Conclusion: CDDA 100%
  Signature: 3088F80FA7BBF13D11E219B0239298CF3C827556
FILE: 08.flac
  Size: 21847296 Hash: BE74409F682E1208E9B4DB7438864326 Accuracy: -m0
  Conclusion: CDDA 99%
  Signature: 90EFDE258CF8C4386917346D76B57DC965899EBD
FILE: 07.flac
  Size: 29762912 Hash: FE60C940A5CACEAE511A7E1F1DC05AAE Accuracy: -m0
  Conclusion: CDDA 100%
  Signature: 227246679AEB5F4C91492B558D96B644F99D609B
FILE: 06.flac
  Size: 23291498 Hash: 3A95CDD4D0DF54473268E7F6100E6E98 Accuracy: -m0
  Conclusion: CDDA 100%
  Signature: E1640645791533ACB041EDC901A11F42EE2099AB
FILE: 05.flac
  Size: 18896548 Hash: F1DE2A028A720649DE9D4EBAD3029D19 Accuracy: -m0
  Conclusion: CDDA 100%
  Signature: EC831D90CC7F9C32EAD8685299484A249EC0617D
FILE: 04.flac
  Size: 12582297 Hash: A7C8EC4043F49267A1B4715C5BC83CEB Accuracy: -m0
  Conclusion: CDDA 43%
  Signature: DB5D2AAF54E621E471BA6C0FA8D51306D7B2B6B7
FILE: 03.flac
  Size: 24479689 Hash: A9065BEB62574A1254B78FCE9C36CD4C Accuracy: -m0
  Conclusion: CDDA 100%
  Signature: 367E275995E5C7EE994FA4863589A73AF7FAFF24
FILE: 02.flac
  Size: 17329933 Hash: D0F168C3973DC9CAD18EC5E392F8E3B7 Accuracy: -m0
  Conclusion: CDDA 100%
  Signature: E2E620C9301F6D36112059A8E066259D8ED40D0A
FILE: 01.flac
  Size: 22207748 Hash: A5C3C673E5D2804DE2C4F5D8858585DB Accuracy: -m0
  Conclusion: CDDA 100%
  Signature: 8AA4B85439EF53668CF611BE5B830B347F375617

Правила, инструкции, FAQ!!!
Торрент  Добавлен [26 мар 2019, 20:04] Скачать торрент Магнет ссылка
Скачать торрент
[ Размер 18.22 КБ / Просмотров 1 ]

Статус
Проверен 
 
Размер  220.44 МБ
Приватный: Нет (DHT включён)
.torrent скачан  0
 


     Отправить личное сообщение
   
Страница 1 из 1
Показать сообщения за:  Поле сортировки  
Начать новую тему Ответить на тему


Сейчас этот форум просматривают: нет зарегистрированных пользователей и гости: 0


Вы не можете начинать темы
Вы не можете отвечать на сообщения
Вы не можете редактировать свои сообщения
Вы не можете удалять свои сообщения
Вы не можете добавлять вложения

Перейти:  
cron