Начать новую тему Ответить на тему
Статистика раздачи
Размер: 276.84 МБ | Добавлен: 26 мар 2019, 19:52 | Скачали: 0
Сидеров: 1  [0 байт/сек]    Личеров: 0  [0 байт/сек]
Пред. тема | След. тема 

Автор
Сообщение

СообщениеДобавлено: 26 мар 2019, 19:52 

Ответить с цитатой 

Ronnie Spector / Unfinished Business
Жанр: Pop-rock
Страна-производитель диска: USA
Год издания: 1987
Издатель (лейбл): CBS
Номер по каталогу: CBS 450856 2
Страна: USA
Аудиокодек: FLAC (*.flac)
Тип рипа: image+.cue
Битрейт аудио: lossless
Продолжительность: 00:39:29
Источник (релизер): Audio CD
Наличие сканов в содержимом раздачи: да
Треклист:
01. Who Can Sleep
02. Love On A Rooftop
03. Dangerous
04. Burnin' Love
05. Unfinised Business
06. Walk Away
07. Heart Song
08. True To You
09. When We Danced
10. Good Love Is Hard To Find
Код:
Exact Audio Copy V1.0 beta 3 from 29. August 2011
Отчёт EAC об извлечении, выполненном 16. октября 2013, 21:36
Ronnie Spector / Unfinished Business
Дисковод: _NEC    DVD_RW ND-4571A   Adapter: 1  ID: 0
Режим чтения                 : Достоверность
Использование точного потока : Да
Отключение кэша аудио        : Да
Использование указателей C2  : Нет
Коррекция смещения при чтении                     : 48
Способность читать области Lead-in и Lead-out     : Нет
Заполнение пропущенных сэмплов тишиной            : Да
Удаление блоков с тишиной в начале и конце        : Нет
При вычислениях CRC использовались нулевые сэмплы : Да
Интерфейс                                         : Встроенный Win32-интерфейс для Win NT/2000
Выходной формат : Внутренние WAV-операции
Формат сэмплов  : 44.100 Гц; 16 бит; стерео
TOC извлечённого CD
     Трек |   Старт  | Длительность | Начальный сектор | Конечный сектор
    ---------------------------------------------------------------------
       1  |  0:00.00 |    4:12.25   |           0      |      18924
       2  |  4:12.25 |    5:01.32   |       18925      |      41531
       3  |  9:13.57 |    3:33.00   |       41532      |      57506
       4  | 12:46.57 |    3:45.40   |       57507      |      74421
       5  | 16:32.22 |    4:09.33   |       74422      |      93129
       6  | 20:41.55 |    4:12.17   |       93130      |     112046
       7  | 24:53.72 |    4:29.18   |      112047      |     132239
       8  | 29:23.15 |    4:03.12   |      132240      |     150476
       9  | 33:26.27 |    2:55.18   |      150477      |     163619
      10  | 36:21.45 |    3:07.15   |      163620      |     177659
Характеристики диапазона извлечения и сообщения об ошибках
Выбранный диапазон
     Имя файла F:\Ronnie Spector - Unfinished Business.wav
     Пиковый уровень 99.5 %
     Скорость извлечения 4.4 X
     Качество диапазона 99.9 %
     CRC копии 8D766D86
     Копирование... OK
Ошибок не произошло
AccurateRip: сводка
Трек  1  : извлечено точно (доверие 2)  [C8043F71]  (AR v1)
Трек  2  : извлечено точно (доверие 2)  [15E585D5]  (AR v1)
Трек  3  : извлечено точно (доверие 2)  [078A45DE]  (AR v1)
Трек  4  : извлечено точно (доверие 2)  [A2332957]  (AR v1)
Трек  5  : извлечено точно (доверие 2)  [7DBC8313]  (AR v1)
Трек  6  : извлечено точно (доверие 2)  [8CE5E074]  (AR v1)
Трек  7  : извлечено точно (доверие 2)  [557E5FCC]  (AR v1)
Трек  8  : извлечено точно (доверие 2)  [EA2A7E2F]  (AR v1)
Трек  9  : извлечено точно (доверие 2)  [5A9F157F]  (AR v1)
Трек 10  : извлечено точно (доверие 2)  [7364F0C1]  (AR v1)
Все треки извлечены точно
Конец отчёта
Код:
REM GENRE Rock
REM DATE 1987
REM DISCID 8F09400A
REM COMMENT "ExactAudioCopy v1.0b3"
PERFORMER "Ronnie Spector"
TITLE "Unfinished Business"
FILE "Ronnie Spector - Unfinished Business.flac" WAVE
  TRACK 01 AUDIO
    TITLE "Who Can Sleep"
    PERFORMER "Ronnie Spector"
    INDEX 01 00:00:00
  TRACK 02 AUDIO
    TITLE "Love On A Rooftop"
    PERFORMER "Ronnie Spector"
    INDEX 01 04:12:25
  TRACK 03 AUDIO
    TITLE "Dangerous"
    PERFORMER "Ronnie Spector"
    INDEX 01 09:13:57
  TRACK 04 AUDIO
    TITLE "Burnin' Love"
    PERFORMER "Ronnie Spector"
    INDEX 01 12:46:57
  TRACK 05 AUDIO
    TITLE "Unfinised Business"
    PERFORMER "Ronnie Spector"
    INDEX 01 16:32:22
  TRACK 06 AUDIO
    TITLE "Walk Away"
    PERFORMER "Ronnie Spector"
    INDEX 01 20:41:55
  TRACK 07 AUDIO
    TITLE "Heart Song"
    PERFORMER "Ronnie Spector"
    INDEX 01 24:53:72
  TRACK 08 AUDIO
    TITLE "True To You"
    PERFORMER "Ronnie Spector"
    INDEX 00 29:22:12
    INDEX 01 29:23:15
  TRACK 09 AUDIO
    TITLE "When We Danced"
    PERFORMER "Ronnie Spector"
    INDEX 01 33:26:27
  TRACK 10 AUDIO
    TITLE "Good Love Is Hard To Find"
    PERFORMER "Ronnie Spector"
    INDEX 01 36:21:45

Доп. информация: Не слишком известный альбом американской певицы Ронни Спектор. А зря, ведь к этой записи приложили руку такие талантливые люди, как Десмонд Чайлд и Эдди Мани. Ронни Спектор - бывшая участница популярной в 60-х годах прошлого столетия девчачьей группы The Ronettes, а также бывшая жена знаменитого продюсера Фила Спектора, который нынче сидит в тюрьме за убийство (гений и злодейство, оказывается, вещи вполне совместные...). Отлично записанный поп-роковый альбом с замечательной музыкой и типичным саундом 80-х годов. Если вы до сих пор не знакомы с этой пластинкой, настоятельно рекомендую её вам послушать, уверен - вы останетесь довольны!
Правила, инструкции, FAQ!!!
Торрент  Добавлен [26 мар 2019, 19:52] Скачать торрент Магнет ссылка
Скачать торрент
[ Размер 22.6 КБ / Просмотров 2 ]

Статус
Проверен 
 
Размер  276.84 МБ
Приватный: Нет (DHT включён)
.torrent скачан  0
 


     Отправить личное сообщение
   
Страница 1 из 1
Показать сообщения за:  Поле сортировки  
Начать новую тему Ответить на тему


Сейчас этот форум просматривают: нет зарегистрированных пользователей и гости: 0


Вы не можете начинать темы
Вы не можете отвечать на сообщения
Вы не можете редактировать свои сообщения
Вы не можете удалять свои сообщения
Вы не можете добавлять вложения

Перейти:  
cron