Начать новую тему Ответить на тему
Статистика раздачи
Размер: 664.81 МБ | Добавлен: 26 мар 2019, 20:49 | Скачали: 1
Сидеров: 1  [0 байт/сек]    Личеров: 2  [0 байт/сек]
Пред. тема | След. тема 

Автор
Сообщение

СообщениеДобавлено: 26 мар 2019, 20:49 

Ответить с цитатой 

Cliff Richard / Cliff Richard CD Collection, CD 18 (Rock 'n' roll Silver & The Rock Connection)
Жанр: Pop, Rock, Rock-N- Roll
Носитель: CD
Страна-производитель диска (релиза): Austria
Год издания: 1983,1984 (1992)
Издатель (лейбл): EMI Records
Номер по каталогу: 0777 7 80499 2 0
Страна исполнителя (группы): England
Аудиокодек: FLAC (*.flac)
Тип рипа: image+.cue
Битрейт аудио: lossless
Продолжительность: (00:59:02)+(00:51:53)
Источник (релизер): Alex Fal
Наличие сканов в содержимом раздачи: да
Треклист:
Код:
[01] Silver's Home Tonight [03:44]
[02] Hold On [03:17]
[03] Never Say Die (Give A Little Bit More) [03:39]
[04] Locked Inside Your Prison [03:30]
[05] Please Don't Fall In Love [03:15]
[06] Baby Your Dynamite [03:54]
[07] Love Stealer [03:40]
[08] The Golden Days Are Over [04:18]
[09] Ocean Deep [05:19]
[10] Move It [03:07]
[11] Donna [04:24]
[12] Be-Bob A-Lula [03:19]
[13] Lucille [03:40]
[14] Little Bitty Pretty One [02:43]
[15] Never Be Anyone Else But You [04:06]
[16] It’ll Be Me [03:15]
Код:
[01] Heart User [03:44]
[02] Willie And The Hand Jive [03:53]
[03] Lovers And Friends [04:35]
[04] Never Be Anyone Else But You [04:05]
[05] La Gonave [04:00]
[06] Over You [03:14]
[07] Shooting From The Heart [03:13]
[08] Learning How To Rock And Roll [03:14]
[09] Lucille [03:39]
[10] Be Bop A Lula [03:18]
[11] Donna [04:24]
[12] Dynamite [03:14]
[13] She Means Nothing To Me [03:37]
[14] Makin' History [03:49]
Код:
Exact Audio Copy V1.1 from 23. June 2015
EAC extraction logfile from 7. May 2016, 15:32
Cliff Richard / Silver
Used drive  : ASUS    SDRW-08D1S-U   Adapter: 1  ID: 1
Read mode               : Secure
Utilize accurate stream : Yes
Defeat audio cache      : Yes
Make use of C2 pointers : No
Read offset correction                      : 667
Overread into Lead-In and Lead-Out          : No
Fill up missing offset samples with silence : Yes
Delete leading and trailing silent blocks   : No
Null samples used in CRC calculations       : Yes
Used interface                              : Native Win32 interface for Win NT & 2000
Used output format              : User Defined Encoder
Selected bitrate                : 128 kBit/s
Quality                         : High
Add ID3 tag                     : No
Command line compressor         : C:\Program Files (x86)\Exact Audio Copy\Flac\flac.exe
Additional command line options : -V -8 -T "Date=%year%" -T "Genre=%genre%" %source%
TOC of the extracted CD
     Track |   Start  |  Length  | Start sector | End sector
    ---------------------------------------------------------
        1  |  0:00.32 |  3:43.53 |        32    |    16809
        2  |  3:44.10 |  3:16.40 |     16810    |    31549
        3  |  7:00.50 |  3:38.62 |     31550    |    47961
        4  | 10:39.37 |  3:29.53 |     47962    |    63689
        5  | 14:09.15 |  3:14.05 |     63690    |    78244
        6  | 17:23.20 |  3:53.60 |     78245    |    95779
        7  | 21:17.05 |  3:39.12 |     95780    |   112216
        8  | 24:56.17 |  4:17.73 |    112217    |   131564
        9  | 29:14.15 |  5:18.65 |    131565    |   155479
       10  | 34:33.05 |  3:06.15 |    155480    |   169444
       11  | 37:39.20 |  4:23.02 |    169445    |   189171
       12  | 42:02.22 |  3:18.50 |    189172    |   204071
       13  | 45:20.72 |  3:39.35 |    204072    |   220531
       14  | 49:00.32 |  2:42.23 |    220532    |   232704
       15  | 51:42.55 |  4:05.25 |    232705    |   251104
       16  | 55:48.05 |  3:14.12 |    251105    |   265666
Range status and errors
Selected range
     Filename C:\Users\Олег\Desktop\Rock 'n' roll Silver\Cliff Richard - Silver.wav
     Peak level 100.0 %
     Extraction speed 4.0 X
     Range quality 100.0 %
     Test CRC 0DFA9EBC
     Copy CRC 0DFA9EBC
     Copy OK
No errors occurred
AccurateRip summary
Track  1  accurately ripped (confidence 3)  [4A18ABC1]  (AR v1)
Track  2  accurately ripped (confidence 3)  [84E76F85]  (AR v1)
Track  3  accurately ripped (confidence 3)  [092ADF25]  (AR v1)
Track  4  accurately ripped (confidence 3)  [A379EB06]  (AR v1)
Track  5  accurately ripped (confidence 3)  [A837EA9B]  (AR v1)
Track  6  accurately ripped (confidence 3)  [3453F7D2]  (AR v1)
Track  7  accurately ripped (confidence 3)  [D4E331AA]  (AR v1)
Track  8  accurately ripped (confidence 3)  [AFB6BAD1]  (AR v1)
Track  9  accurately ripped (confidence 3)  [6F2E9EDE]  (AR v1)
Track 10  accurately ripped (confidence 3)  [B8BADF3D]  (AR v1)
Track 11  accurately ripped (confidence 3)  [59060E78]  (AR v1)
Track 12  accurately ripped (confidence 3)  [89486335]  (AR v1)
Track 13  accurately ripped (confidence 3)  [42980235]  (AR v1)
Track 14  accurately ripped (confidence 3)  [EE461CA1]  (AR v1)
Track 15  accurately ripped (confidence 3)  [3C1CD087]  (AR v1)
Track 16  accurately ripped (confidence 3)  [3AA35D49]  (AR v1)
All tracks accurately ripped
End of status report
---- CUETools DB Plugin V2.1.6
[CTDB TOCID: WJ2vus5C6X.rDtW43lxfhY0I3f4-] found
Submit result: WJ2vus5C6X.rDtW43lxfhY0I3f4- has been confirmed
Track | CTDB Status
  1   | (1/1) Accurately ripped
  2   | (1/1) Accurately ripped
  3   | (1/1) Accurately ripped
  4   | (1/1) Accurately ripped
  5   | (1/1) Accurately ripped
  6   | (1/1) Accurately ripped
  7   | (1/1) Accurately ripped
  8   | (1/1) Accurately ripped
  9   | (1/1) Accurately ripped
 10   | (1/1) Accurately ripped
 11   | (1/1) Accurately ripped
 12   | (1/1) Accurately ripped
 13   | (1/1) Accurately ripped
 14   | (1/1) Accurately ripped
 15   | (1/1) Accurately ripped
 16   | (1/1) Accurately ripped
==== Log checksum EF392363F9FE05FC4CD6546E3C0E2D53CF1219989EDD0202DE8E45977C704CA9 ====
Код:
Exact Audio Copy V1.1 from 23. June 2015
EAC extraction logfile from 7. May 2016, 16:12
Cliff Richard / The Rock Connection
Used drive  : ASUS    SDRW-08D1S-U   Adapter: 1  ID: 1
Read mode               : Secure
Utilize accurate stream : Yes
Defeat audio cache      : Yes
Make use of C2 pointers : No
Read offset correction                      : 667
Overread into Lead-In and Lead-Out          : No
Fill up missing offset samples with silence : Yes
Delete leading and trailing silent blocks   : No
Null samples used in CRC calculations       : Yes
Used interface                              : Native Win32 interface for Win NT & 2000
Used output format              : User Defined Encoder
Selected bitrate                : 128 kBit/s
Quality                         : High
Add ID3 tag                     : No
Command line compressor         : C:\Program Files (x86)\Exact Audio Copy\Flac\flac.exe
Additional command line options : -V -8 -T "Date=%year%" -T "Genre=%genre%" %source%
TOC of the extracted CD
     Track |   Start  |  Length  | Start sector | End sector
    ---------------------------------------------------------
        1  |  0:00.32 |  3:43.50 |        32    |    16806
        2  |  3:44.07 |  3:52.13 |     16807    |    34219
        3  |  7:36.20 |  4:34.55 |     34220    |    54824
        4  | 12:11.00 |  4:04.65 |     54825    |    73189
        5  | 16:15.65 |  3:59.45 |     73190    |    91159
        6  | 20:15.35 |  3:13.25 |     91160    |   105659
        7  | 23:28.60 |  3:12.42 |    105660    |   120101
        8  | 26:41.27 |  3:13.63 |    120102    |   134639
        9  | 29:55.15 |  3:38.65 |    134640    |   151054
       10  | 33:34.05 |  3:17.47 |    151055    |   165876
       11  | 36:51.52 |  4:23.33 |    165877    |   185634
       12  | 41:15.10 |  3:13.32 |    185635    |   200141
       13  | 44:28.42 |  3:36.18 |    200142    |   216359
       14  | 48:04.60 |  3:48.20 |    216360    |   233479
Range status and errors
Selected range
     Filename C:\Users\Олег\Desktop\Cliff Richard CD Collection CD 18\The Rock Connection\Cliff Richard - The Rock Connection.wav
     Peak level 100.0 %
     Extraction speed 3.9 X
     Range quality 100.0 %
     Test CRC E5C3B8EC
     Copy CRC E5C3B8EC
     Copy OK
No errors occurred
AccurateRip summary
Track  1  accurately ripped (confidence 2)  [930133B1]  (AR v1)
Track  2  accurately ripped (confidence 2)  [59F2A6DA]  (AR v1)
Track  3  accurately ripped (confidence 2)  [1F282CDC]  (AR v1)
Track  4  accurately ripped (confidence 2)  [505FE1E2]  (AR v1)
Track  5  accurately ripped (confidence 2)  [6B07674B]  (AR v1)
Track  6  accurately ripped (confidence 2)  [DDD19206]  (AR v1)
Track  7  accurately ripped (confidence 2)  [DC542F58]  (AR v1)
Track  8  accurately ripped (confidence 2)  [B0482B46]  (AR v1)
Track  9  accurately ripped (confidence 2)  [32158085]  (AR v1)
Track 10  accurately ripped (confidence 2)  [AC220FF9]  (AR v1)
Track 11  accurately ripped (confidence 2)  [2EF1EB92]  (AR v1)
Track 12  accurately ripped (confidence 2)  [E568D686]  (AR v1)
Track 13  accurately ripped (confidence 2)  [1C0583BF]  (AR v1)
Track 14  accurately ripped (confidence 2)  [75032BD7]  (AR v1)
All tracks accurately ripped
End of status report
---- CUETools DB Plugin V2.1.6
[CTDB TOCID: yd6Nvb__r8jXrWLEzaQg7NhEKo4-] found
Submit result: yd6Nvb__r8jXrWLEzaQg7NhEKo4- has been confirmed
Track | CTDB Status
  1   | (1/1) Accurately ripped
  2   | (1/1) Accurately ripped
  3   | (1/1) Accurately ripped
  4   | (1/1) Accurately ripped
  5   | (1/1) Accurately ripped
  6   | (1/1) Accurately ripped
  7   | (1/1) Accurately ripped
  8   | (1/1) Accurately ripped
  9   | (1/1) Accurately ripped
 10   | (1/1) Accurately ripped
 11   | (1/1) Accurately ripped
 12   | (1/1) Accurately ripped
 13   | (1/1) Accurately ripped
 14   | (1/1) Accurately ripped
==== Log checksum 7D2C458FF32CE892C432950ABB1EC3327841E5D02BDB7A7E1A5D1873B677A90A ====
Код:
REM GENRE Rock
REM DATE 1983
REM DISCID CA0DD610
REM COMMENT "ExactAudioCopy v1.1"
PERFORMER "Cliff Richard"
TITLE "Silver"
FILE "Cliff Richard - Silver.flac" WAVE
  TRACK 01 AUDIO
    TITLE "Silver's Home Tonight"
    PERFORMER "Cliff Richard"
    INDEX 00 00:00:00
    INDEX 01 00:00:32
  TRACK 02 AUDIO
    TITLE "Hold On"
    PERFORMER "Cliff Richard"
    INDEX 00 03:43:15
    INDEX 01 03:44:10
  TRACK 03 AUDIO
    TITLE "Never Say Die (Give A Little Bit More)"
    PERFORMER "Cliff Richard"
    INDEX 00 07:00:47
    INDEX 01 07:00:50
  TRACK 04 AUDIO
    TITLE "Locked Inside Your Prison"
    PERFORMER "Cliff Richard"
    INDEX 00 10:38:27
    INDEX 01 10:39:37
  TRACK 05 AUDIO
    TITLE "Please Don't Fall In Love"
    PERFORMER "Cliff Richard"
    INDEX 00 14:07:62
    INDEX 01 14:09:15
  TRACK 06 AUDIO
    TITLE "Baby You're Dynamite"
    PERFORMER "Cliff Richard"
    INDEX 00 17:21:70
    INDEX 01 17:23:20
  TRACK 07 AUDIO
    TITLE "Love Stealer"
    PERFORMER "Cliff Richard"
    INDEX 00 21:15:57
    INDEX 01 21:17:05
  TRACK 08 AUDIO
    TITLE "The Golden Days Are Over"
    PERFORMER "Cliff Richard"
    INDEX 00 24:55:30
    INDEX 01 24:56:17
  TRACK 09 AUDIO
    TITLE "Ocean deep"
    PERFORMER "Cliff Richard"
    INDEX 00 29:13:10
    INDEX 01 29:14:15
  TRACK 10 AUDIO
    TITLE "Move It"
    PERFORMER "Cliff Richard"
    INDEX 00 34:31:52
    INDEX 01 34:33:05
  TRACK 11 AUDIO
    TITLE "Donna"
    PERFORMER "Cliff Richard"
    INDEX 00 37:38:70
    INDEX 01 37:39:20
  TRACK 12 AUDIO
    TITLE "Be-Bop A-Lula"
    PERFORMER "Cliff Richard"
    INDEX 00 42:02:05
    INDEX 01 42:02:22
  TRACK 13 AUDIO
    TITLE "Lucille"
    PERFORMER "Cliff Richard"
    INDEX 00 45:20:27
    INDEX 01 45:20:72
  TRACK 14 AUDIO
    TITLE "Little Bitty Pretty One"
    PERFORMER "Cliff Richard"
    INDEX 00 49:00:30
    INDEX 01 49:00:32
  TRACK 15 AUDIO
    TITLE "Never Be Anyone Else But You"
    PERFORMER "Cliff Richard"
    INDEX 00 51:42:02
    INDEX 01 51:42:55
  TRACK 16 AUDIO
    TITLE "It'll Be Me"
    PERFORMER "Cliff Richard"
    INDEX 00 55:48:02
    INDEX 01 55:48:05
Код:
REM GENRE Rock
REM DATE 1984
REM DISCID C00C290E
REM COMMENT "ExactAudioCopy v1.1"
PERFORMER "Cliff Richard"
TITLE "The Rock Connection"
FILE "Cliff Richard - The Rock Connection.flac" WAVE
  TRACK 01 AUDIO
    TITLE "Heart User"
    PERFORMER "Cliff Richard"
    INDEX 00 00:00:00
    INDEX 01 00:00:32
  TRACK 02 AUDIO
    TITLE "Willie And The Hand Jive"
    PERFORMER "Cliff Richard"
    INDEX 00 03:43:62
    INDEX 01 03:44:07
  TRACK 03 AUDIO
    TITLE "Lovers And Friends"
    PERFORMER "Cliff Richard"
    INDEX 00 07:36:17
    INDEX 01 07:36:20
  TRACK 04 AUDIO
    TITLE "Never Be Anyone Else But You"
    PERFORMER "Cliff Richard"
    INDEX 00 12:10:25
    INDEX 01 12:11:00
  TRACK 05 AUDIO
    TITLE "La Gonave"
    PERFORMER "Cliff Richard"
    INDEX 00 16:15:47
    INDEX 01 16:15:65
  TRACK 06 AUDIO
    TITLE "Over You"
    PERFORMER "Cliff Richard"
    INDEX 00 20:15:32
    INDEX 01 20:15:35
  TRACK 07 AUDIO
    TITLE "Shooting From The Heart"
    PERFORMER "Cliff Richard"
    INDEX 00 23:28:57
    INDEX 01 23:28:60
  TRACK 08 AUDIO
    TITLE "Learning How To Rock And Roll"
    PERFORMER "Cliff Richard"
    INDEX 00 26:40:35
    INDEX 01 26:41:27
  TRACK 09 AUDIO
    TITLE "Lucille"
    PERFORMER "Cliff Richard"
    INDEX 00 29:55:07
    INDEX 01 29:55:15
  TRACK 10 AUDIO
    TITLE "Be Bop A Lula"
    PERFORMER "Cliff Richard"
    INDEX 00 33:34:02
    INDEX 01 33:34:05
  TRACK 11 AUDIO
    TITLE "Donna"
    PERFORMER "Cliff Richard"
    INDEX 00 36:50:57
    INDEX 01 36:51:52
  TRACK 12 AUDIO
    TITLE "Dynamite"
    PERFORMER "Cliff Richard"
    INDEX 00 41:14:27
    INDEX 01 41:15:10
  TRACK 13 AUDIO
    TITLE "She Means Nothing To Me"
    PERFORMER "Cliff Richard"
    INDEX 00 44:28:27
    INDEX 01 44:28:42
  TRACK 14 AUDIO
    TITLE "Makin' History"
    PERFORMER "Cliff Richard"
    INDEX 00 48:04:22
    INDEX 01 48:04:60
Правила, инструкции, FAQ!!!
Торрент  Добавлен [26 мар 2019, 20:49] Скачать торрент Магнет ссылка
Скачать торрент
[ Размер 14.21 КБ / Просмотров 7 ]

Статус
Проверен 
 
Размер  664.81 МБ
Приватный: Нет (DHT включён)
.torrent скачан  1
 


     Отправить личное сообщение
   
Страница 1 из 1
Показать сообщения за:  Поле сортировки  
Начать новую тему Ответить на тему


Сейчас этот форум просматривают: нет зарегистрированных пользователей и гости: 0


Вы не можете начинать темы
Вы не можете отвечать на сообщения
Вы не можете редактировать свои сообщения
Вы не можете удалять свои сообщения
Вы не можете добавлять вложения

Перейти:  
cron