Начать новую тему Ответить на тему
Статистика раздачи
Размер: 236.91 МБ | Добавлен: 26 мар 2019, 19:51 | Скачали: 0
Сидеров: 1  [0 байт/сек]    Личеров: 0  [0 байт/сек]
Пред. тема | След. тема 

Автор
Сообщение

СообщениеДобавлено: 26 мар 2019, 19:51 

Ответить с цитатой 

Per Gessle / Att Vara Per Gessle - Doppade Bara Tårna - Demos 1977-90
Жанр: Pop Rock / Rock
Носитель: CD
Страна-производитель диска (релиза): Sweden
Год издания: 2007
Издатель (лейбл): Albert Bonniers Förlag
Номер по каталогу: ISBN 978-91-0-011739-9
Страна исполнителя (группы): Sweden
Аудиокодек: FLAC (*.flac)
Тип рипа: image+.cue
Битрейт аудио: lossless
Продолжительность: 00:32:55
Источник (релизер): собственный рип
Наличие сканов в содержимом раздачи: нет (только скан диска)
Треклист:
01. Saken Slår Mej Som På Huvudet! (1 Mars 1977) (Grape Rock) (3:19)
02. Lägg Din Hand I Min Om Du Har Lust (12 Juni 1978) (3:11)
03. Svarta Glas (13 Oktober 1985) (3:06)
04. Dansar Nerför Ditt Stup I Rekordfart (7 Maj 1986) (2:56)
05. It Must Have Been Love (14 April 1987) (4:04)
06. The Look (30 Mars 1988) (3:25)
07. Listen To Your Heart (9 Maj 1988) (4:23)
08. Joyrider (22 Maj 1990) (4:10)
09. Joyrider (23 Maj 1990) (4:18)
Код:
Exact Audio Copy V1.0 beta 3 from 29. August 2011
EAC extraction logfile from 10. May 2017, 21:41
Per Gessle / Att Vara Per Gessle - Doppade Bara Tårna - Demos 1977-90
Used drive  : PIONEER BD-RW   BDR-207D   Adapter: 1  ID: 0
Read mode               : Secure
Utilize accurate stream : Yes
Defeat audio cache      : Yes
Make use of C2 pointers : No
Read offset correction                      : 667
Overread into Lead-In and Lead-Out          : No
Fill up missing offset samples with silence : Yes
Delete leading and trailing silent blocks   : No
Null samples used in CRC calculations       : Yes
Used interface                              : Native Win32 interface for Win NT & 2000
Used output format              : User Defined Encoder
Selected bitrate                : 128 kBit/s
Quality                         : High
Add ID3 tag                     : No
Command line compressor         : C:\Program Files (x86)\Exact Audio Copy\Flac\flac.exe
Additional command line options : -V -8 -T "Genre=%genre%" -T "Artist=%artist%" -T "Title=%title%" -T "Album=%albumtitle%" -T "Date=%year%" -T "Tracknumber=%tracknr%" -T "Comment=%comment%" %source%
TOC of the extracted CD
     Track |   Start  |  Length  | Start sector | End sector
    ---------------------------------------------------------
        1  |  0:00.00 |  3:19.00 |         0    |    14924
        2  |  3:19.00 |  3:11.00 |     14925    |    29249
        3  |  6:30.00 |  3:06.61 |     29250    |    43260
        4  |  9:36.61 |  2:56.45 |     43261    |    56505
        5  | 12:33.31 |  4:04.65 |     56506    |    74870
        6  | 16:38.21 |  3:25.00 |     74871    |    90245
        7  | 20:03.21 |  4:23.25 |     90246    |   109995
        8  | 24:26.46 |  4:10.39 |    109996    |   128784
        9  | 28:37.10 |  4:18.01 |    128785    |   148135
Range status and errors
Selected range
     Filename D:\Uploads\Per Gessle Discography\04 - Compilations\2007 - Att Vara Per Gessle - Doppade Bara Tarna - Demos 1977-90 (ISBN 978-91-0-011739-9)\Per Gessle - Att Vara Per Gessle - Doppade Bara Tarna - Demos 1977-90 (ISBN 978-91-0-011739-9).wav
     Peak level 98.9 %
     Extraction speed 1.1 X
     Range quality 100.0 %
     Test CRC 8FED6E7F
     Copy CRC 8FED6E7F
     Copy OK
No errors occurred
AccurateRip summary
Track  1  accurately ripped (confidence 2)  [99BB08BE]  (AR v2)
Track  2  accurately ripped (confidence 2)  [478248F1]  (AR v2)
Track  3  accurately ripped (confidence 2)  [481187F6]  (AR v2)
Track  4  accurately ripped (confidence 2)  [15560155]  (AR v2)
Track  5  accurately ripped (confidence 2)  [7C7FBEC1]  (AR v2)
Track  6  accurately ripped (confidence 2)  [850C9B61]  (AR v2)
Track  7  accurately ripped (confidence 2)  [A0040784]  (AR v2)
Track  8  accurately ripped (confidence 2)  [3AA6E563]  (AR v2)
Track  9  accurately ripped (confidence 2)  [7EAE650E]  (AR v2)
All tracks accurately ripped
End of status report
==== Log checksum 73AB41F199C348DF275CF1CD292AF5EB2B49085052FA21AFA9E6E6677DC3102B ====
Код:
REM GENRE Rock
REM DATE 2007
REM DISCID 6607B709
REM COMMENT "ExactAudioCopy v1.0b3"
PERFORMER "Per Gessle"
TITLE "Att Vara Per Gessle - Doppade Bara Tarna - Demos 1977-90"
FILE "Per Gessle - Att Vara Per Gessle - Doppade Bara Tarna - Demos 1977-90 (ISBN 978-91-0-011739-9).flac" WAVE
  TRACK 01 AUDIO
    TITLE "Saken Slar Mej Som Pa Huvudet! (1 Mars 1977) (Grape Rock)"
    PERFORMER "Per Gessle"
    INDEX 01 00:00:00
  TRACK 02 AUDIO
    TITLE "Lagg Din Hand I Min Om Du Har Lust (12 Juni 1978)"
    PERFORMER "Per Gessle"
    INDEX 01 03:19:00
  TRACK 03 AUDIO
    TITLE "Svarta Glas (13 Oktober 1985)"
    PERFORMER "Per Gessle"
    INDEX 01 06:30:00
  TRACK 04 AUDIO
    TITLE "Dansar Nerfor Ditt Stup I Rekordfart (7 Maj 1986)"
    PERFORMER "Per Gessle"
    INDEX 01 09:36:61
  TRACK 05 AUDIO
    TITLE "It Must Have Been Love (14 April 1987)"
    PERFORMER "Per Gessle"
    INDEX 01 12:33:31
  TRACK 06 AUDIO
    TITLE "The Look (30 Mars 1988)"
    PERFORMER "Per Gessle"
    INDEX 01 16:38:21
  TRACK 07 AUDIO
    TITLE "Listen To Your Heart (9 Maj 1988)"
    PERFORMER "Per Gessle"
    INDEX 01 20:03:21
  TRACK 08 AUDIO
    TITLE "Joyrider (22 Maj 1990)"
    PERFORMER "Per Gessle"
    INDEX 01 24:26:46
  TRACK 09 AUDIO
    TITLE "Joyrider (23 Maj 1990)"
    PERFORMER "Per Gessle"
    INDEX 01 28:37:10
Пер Хо́кан Ге́ссле (швед. Per Håkan Gessle; 12 января 1959 года, Хальмстад, Халланд, Швеция) — шведский музыкант-мультиинструменталист, композитор, продюсер, автор песен и вокалист групп Gyllene Tider, Roxette и других.
Диск является приложением к книге-биографии Пера. Сканы книги в раздачу не включены.
Правила, инструкции, FAQ!!!
Торрент  Добавлен [26 мар 2019, 19:51] Скачать торрент Магнет ссылка
Скачать торрент
[ Размер 3.45 КБ / Просмотров 6 ]

Статус
Проверен 
 
Размер  236.91 МБ
Приватный: Нет (DHT включён)
.torrent скачан  0
 


     Отправить личное сообщение
   
Страница 1 из 1
Показать сообщения за:  Поле сортировки  
Начать новую тему Ответить на тему


Сейчас этот форум просматривают: нет зарегистрированных пользователей и гости: 0


Вы не можете начинать темы
Вы не можете отвечать на сообщения
Вы не можете редактировать свои сообщения
Вы не можете удалять свои сообщения
Вы не можете добавлять вложения

Перейти:  
cron