Начать новую тему Ответить на тему
Статистика раздачи
Размер: 321.95 МБ | Добавлен: 26 мар 2019, 18:39 | Скачали: 0
Сидеров: 0  [0 байт/сек]    Личеров: 0  [0 байт/сек]
Пред. тема | След. тема 

Автор
Сообщение

СообщениеДобавлено: 26 мар 2019, 18:39 

Ответить с цитатой 

Edyta Bartosiewicz / Dziecko
Жанр: Pop rock, Rock
Страна исполнителя (группы): Польша
Год издания: 1997
Аудиокодек: FLAC (*.flac)
Тип рипа: tracks
Битрейт аудио: lossless
Продолжительность: 00:54:07
Источник (релизер): скачано из интернета
Наличие сканов в содержимом раздачи: нет
Lista utworów:Jenny
Skłamałam
Nie znamy się
Moja ulubiona pora roku
Dziecko
Boogie czyli zemsta słodka jest
Coś zmieniło się?
Na krawędzi
Wśród pachnących magnolii
Nie jak przyjaciel
Słyszę jak mnie wzywasz
[*]Dobrze nam
Код:
Exact Audio Copy V0.99 prebeta 5 from 4. May 2009
EAC extraction logfile from 23. June 2013, 10:46
Edyta Bartosiewicz / Dziecko
Used drive  : TSSTcorpCDDVDW SH-222BB   Adapter: 4  ID: 0
Read mode               : Secure
Utilize accurate stream : Yes
Defeat audio cache      : Yes
Make use of C2 pointers : No
Read offset correction                      : 6
Overread into Lead-In and Lead-Out          : No
Fill up missing offset samples with silence : Yes
Delete leading and trailing silent blocks   : No
Null samples used in CRC calculations       : Yes
Used interface                              : Native Win32 interface for Win NT & 2000
Gap handling                                : Appended to previous track
Used output format              : User Defined Encoder
Selected bitrate                : 1024 kBit/s
Quality                         : High
Add ID3 tag                     : No
Command line compressor         : C:\Program Files\Exact Audio Copy\Flac\flac.exe
Additional command line options : -8 -T "artist=%a" -T "title=%t" -T "album=%g" -T "date=%y" -T "tracknumber=%n" -T "genre=%m" %s
TOC of the extracted CD
     Track |   Start  |  Length  | Start sector | End sector
    ---------------------------------------------------------
        1  |  0:00.00 |  4:43.72 |         0    |    21296
        2  |  4:43.72 |  4:59.18 |     21297    |    43739
        3  |  9:43.15 |  5:12.30 |     43740    |    67169
        4  | 14:55.45 |  4:29.27 |     67170    |    87371
        5  | 19:24.72 |  4:55.00 |     87372    |   109496
        6  | 24:19.72 |  3:04.00 |    109497    |   123296
        7  | 27:23.72 |  5:16.00 |    123297    |   146996
        8  | 32:39.72 |  4:13.70 |    146997    |   166041
        9  | 36:53.67 |  3:33.30 |    166042    |   182046
       10  | 40:27.22 |  3:18.00 |    182047    |   196896
       11  | 43:45.22 |  4:46.50 |    196897    |   218396
       12  | 48:31.72 |  5:57.08 |    218397    |   245179
Track  1
     Filename C:\Users\Marcin\Desktop\Edyta Bartosiewicz - Dziecko (1997) [FLAC]\01 - Jenny.wav
     Pre-gap length  0:00:02.00
     Peak level 99.8 %
     Track quality 100.0 %
     Test CRC 3A324438
     Copy CRC 3A324438
     Track not present in AccurateRip database
     Copy OK
Track  2
     Filename C:\Users\Marcin\Desktop\Edyta Bartosiewicz - Dziecko (1997) [FLAC]\02 - Sk³ama³am.wav
     Pre-gap length  0:00:02.00
     Peak level 99.7 %
     Track quality 100.0 %
     Test CRC C6456832
     Copy CRC C6456832
     Track not present in AccurateRip database
     Copy OK
Track  3
     Filename C:\Users\Marcin\Desktop\Edyta Bartosiewicz - Dziecko (1997) [FLAC]\03 - Nie Znamy Siê.wav
     Pre-gap length  0:00:02.00
     Peak level 99.7 %
     Track quality 100.0 %
     Test CRC F5AF9B4A
     Copy CRC F5AF9B4A
     Track not present in AccurateRip database
     Copy OK
Track  4
     Filename C:\Users\Marcin\Desktop\Edyta Bartosiewicz - Dziecko (1997) [FLAC]\04 - Moja Ulubiona Pora Roku.wav
     Pre-gap length  0:00:02.00
     Peak level 99.7 %
     Track quality 100.0 %
     Test CRC F83CAD20
     Copy CRC F83CAD20
     Track not present in AccurateRip database
     Copy OK
Track  5
     Filename C:\Users\Marcin\Desktop\Edyta Bartosiewicz - Dziecko (1997) [FLAC]\05 - Dziecko.wav
     Pre-gap length  0:00:02.00
     Peak level 99.7 %
     Track quality 100.0 %
     Test CRC CA97933E
     Copy CRC CA97933E
     Track not present in AccurateRip database
     Copy OK
Track  6
     Filename C:\Users\Marcin\Desktop\Edyta Bartosiewicz - Dziecko (1997) [FLAC]\06 - Boogie Czyli Zemsta S³odka Jest.wav
     Pre-gap length  0:00:02.00
     Peak level 100.0 %
     Track quality 100.0 %
     Test CRC EBF6DE2C
     Copy CRC EBF6DE2C
     Track not present in AccurateRip database
     Copy OK
Track  7
     Filename C:\Users\Marcin\Desktop\Edyta Bartosiewicz - Dziecko (1997) [FLAC]\07 - Coœ Zmieni³o Siê.wav
     Pre-gap length  0:00:02.00
     Peak level 99.7 %
     Track quality 100.0 %
     Test CRC AA0BBA94
     Copy CRC AA0BBA94
     Track not present in AccurateRip database
     Copy OK
Track  8
     Filename C:\Users\Marcin\Desktop\Edyta Bartosiewicz - Dziecko (1997) [FLAC]\08 - Na Krawêdzi.wav
     Pre-gap length  0:00:02.00
     Peak level 99.7 %
     Track quality 100.0 %
     Test CRC 40F66809
     Copy CRC 40F66809
     Track not present in AccurateRip database
     Copy OK
Track  9
     Filename C:\Users\Marcin\Desktop\Edyta Bartosiewicz - Dziecko (1997) [FLAC]\09 - Wœród Pachn¹cych Magnolii.wav
     Pre-gap length  0:00:02.00
     Peak level 99.7 %
     Track quality 100.0 %
     Test CRC 6EC328EA
     Copy CRC 6EC328EA
     Track not present in AccurateRip database
     Copy OK
Track 10
     Filename C:\Users\Marcin\Desktop\Edyta Bartosiewicz - Dziecko (1997) [FLAC]\10 - Nie Jak Przyjaciel.wav
     Pre-gap length  0:00:02.00
     Peak level 99.7 %
     Track quality 100.0 %
     Test CRC C00EAB87
     Copy CRC C00EAB87
     Track not present in AccurateRip database
     Copy OK
Track 11
     Filename C:\Users\Marcin\Desktop\Edyta Bartosiewicz - Dziecko (1997) [FLAC]\11 - S³yszê Jak Mnie Wzywasz.wav
     Pre-gap length  0:00:02.00
     Peak level 99.7 %
     Track quality 100.0 %
     Test CRC 09D02C22
     Copy CRC 09D02C22
     Track not present in AccurateRip database
     Copy OK
Track 12
     Filename C:\Users\Marcin\Desktop\Edyta Bartosiewicz - Dziecko (1997) [FLAC]\12 - Dobrze Nam.wav
     Pre-gap length  0:00:02.00
     Peak level 96.4 %
     Track quality 100.0 %
     Test CRC 4434E73D
     Copy CRC 4434E73D
     Track not present in AccurateRip database
     Copy OK
No errors occurred
End of status report
Правила, инструкции, FAQ!!!
Торрент  Добавлен [26 мар 2019, 18:39] Скачать торрент Магнет ссылка
Скачать торрент
[ Размер 4.49 КБ / Просмотров 1 ]

Статус
Проверен 
 
Размер  321.95 МБ
Приватный: Нет (DHT включён)
.torrent скачан  0
 


     Отправить личное сообщение
   
Страница 1 из 1
Показать сообщения за:  Поле сортировки  
Начать новую тему Ответить на тему


Сейчас этот форум просматривают: нет зарегистрированных пользователей и гости: 0


Вы не можете начинать темы
Вы не можете отвечать на сообщения
Вы не можете редактировать свои сообщения
Вы не можете удалять свои сообщения
Вы не можете добавлять вложения

Перейти:  
cron