Начать новую тему Ответить на тему
Статистика раздачи
Размер: 195.17 МБ | Добавлен: 26 мар 2019, 20:00 | Скачали: 0
Сидеров: 0  [0 байт/сек]    Личеров: 0  [0 байт/сек]
Пред. тема | След. тема 

Автор
Сообщение

СообщениеДобавлено: 26 мар 2019, 20:00 

Ответить с цитатой 

The Pandamonium "The unreleased album"
Жанр: Pop-rock, rock, beat
Год выпуска диска: 2004
Оригинальный релиз - 1969
Производитель диска: England
Аудио кодек: APE
Тип рипа: image+.cue
Битрейт аудио: lossless
Продолжительность: 36:38
Трэклист:
01. I Know You
02. Itґs A Long Time
03. I Am What I Am
04. Sunrise
05. If I Could Be With You
06. Sit And Watch The Sunshine
07. Baby I'll Be Yours
08. Send Out A Smile
09. Who Knows What We May Find
10. Waiting For The Summer
11. I Believe In You
Доп. информация
Label: Radioactive
Personel
Martin Curtis - rhythm guitar; vocals - tracks 1-11
Bob Ponton - lead guitar; acoustic guitar; vocals - tracks 1-11
Albert Lee - rhythm guitar; lead guitar - tracks 3, 4, 5, 8, 10, 11
Pete Gavin - drums - tracks 3, 8
Chas Hodges - bass - tracks 3, 8
Clem Ketiny - drums - tracks 4, 5, 10 ,11
Gerry Conway - drums - tracks 1, 2, 7, 9
Jerry Donahue - lead guitar; rhythm guitar; vocals - tracks 1, 2, 7, 9
Pat Donaldson - bass, tracks 1, 2, 7, 9
Tom Parker - piano - tracks 1, 2, 4, 5, 7, 9, 10, 11 and arrangements
Val Cope - backing vocals - tracks 1, 2, 4, 7, 8, 9, 11.
Engineer: John Wood
Producers: Shel Talmy and Hugh Murphy
Recorded at Sound Techniques, London.
All tracks are written by Bob Ponton and Martin Curtis.
Info
To many serious record collectors the name "Pandamonium" means several highly collectable singles issued by CBS in the '60s. The band which started life in 1963 - 64 as the Pandas consisted of the song writing team of Bob Ponton and Martin Curtis with the support of fellow men of Kent Mick Glass andSteve Chapman (who later played drums for Al Stewart and Poco). After signing to CBS in 1966 the band enjoyed underground success with a superb cover of Donovan Leitch's Season Of The Witch (CBS202462), which curiously enough pre-dated the folk singer's own version of the song, later to appear on the Sunshine Superman album, by some months.
The cult success of 'Season Of The Witch' was followed by what many consider to be their finest single, 'No Presents For Me' (CBS 2664), a track which was pure psychedelic beat and featured some extremely effective backwards fuzz guitar. One further single followed on the CBS label (Chocolate Buster Dam/Fly With Me Forever - CBS 3451), but a disagreement with the label led to the group's departure and subsequent dissolution.
In 1969 Ponton and Curtis signed to Liberty Records (part of EMI's stable of labels) and recorded the non-Pandamonium album. Throughts and words (LBS83224E) with Mike Batt providing support on the piano, as well serving as both produced and arranger. Unfortunately the album, which Liberty did little to promote, dissappeared by members of Heads, Hand and Feet and Fotheringray, to record this album which has remained unreleased until now.
This was the last time that Ponton and Curtis where to record together, although the pair continued to write songs for George Martin's Air Music, and even enjoyed a minor success when The Fortunes recorded one of their tunes, Now you're in my heart.
Exact Audio Copy V0.99 prebeta 4 from 23. January 2008
Отчёт EAC об извлечении, выполненном 29. апреля 2009, 23:01
The Pandamonium / The Unreleased Album 1969
Дисковод: HL-DT-STDVD-RAM GSA-H55N Adapter: 0 ID: 1
Режим чтения : Достоверность
Использование точного потока : Да
Отключение кэша аудио : Да
Использование указателей C2 : Нет
Коррекция смещения при чтении : 102
Способность читать области Lead-in и Lead-out : Нет
Заполнение пропущенных сэмплов тишиной : Да
Удаление блоков с тишиной в начале и конце : Нет
При вычислениях CRC использовались нулевые сэмплы : Да
Интерфейс : Установленный внешний ASPI-интерфейс
Выходной формат : Внутренние WAV-операции
Формат сэмплов : 44.100 Гц; 16 бит; стерео
TOC извлечённого CD
Трек | Старт | Длительность | Начальный сектор | Конечный сектор
---------------------------------------------------------------------
1 | 0:00.00 | 3:17.44 | 0 | 14818
2 | 3:17.44 | 3:14.00 | 14819 | 29368
3 | 6:31.44 | 3:53.53 | 29369 | 46896
4 | 10:25.22 | 4:10.04 | 46897 | 65650
5 | 14:35.26 | 2:15.27 | 65651 | 75802
6 | 16:50.53 | 3:10.58 | 75803 | 90110
7 | 20:01.36 | 3:51.40 | 90111 | 107475
8 | 23:53.01 | 3:03.55 | 107476 | 121255
9 | 26:56.56 | 3:14.42 | 121256 | 135847
10 | 30:11.23 | 2:30.20 | 135848 | 147117
11 | 32:41.43 | 3:56.47 | 147118 | 164864
Характеристики диапазона извлечения и сообщения об ошибках
Выбранный диапазон
Имя файла D:\-\Music\ТОРРЕНТ\ThePandamonium\The Pandamonium - The Unreleased Album 1969.wav
Пиковый уровень 99.4 %
Качество диапазона 100.0 %
CRC копии BF9323D2
Копирование... OK
Ошибок не произошло
Конец отчёта
P.S. = прилагается обложка 400х400 пикселей (не скан).
спасибо за "спасибо"!
Правила, инструкции, FAQ!!!
Торрент  Добавлен [26 мар 2019, 20:00] Скачать торрент Магнет ссылка
Скачать торрент
[ Размер 31.42 КБ / Просмотров 2 ]

Статус
Проверен 
 
Размер  195.17 МБ
Приватный: Нет (DHT включён)
.torrent скачан  0
 


     Отправить личное сообщение
   
Страница 1 из 1
Показать сообщения за:  Поле сортировки  
Начать новую тему Ответить на тему


Сейчас этот форум просматривают: нет зарегистрированных пользователей и гости: 0


Вы не можете начинать темы
Вы не можете отвечать на сообщения
Вы не можете редактировать свои сообщения
Вы не можете удалять свои сообщения
Вы не можете добавлять вложения

Перейти:  
cron