Начать новую тему Ответить на тему
Статистика раздачи
Размер: 259.4 МБ | Добавлен: 26 мар 2019, 19:15 | Скачали: 0
Сидеров: 0  [0 байт/сек]    Личеров: 0  [0 байт/сек]
Пред. тема | След. тема 

Автор
Сообщение

СообщениеДобавлено: 26 мар 2019, 19:15 

Ответить с цитатой 

Reckless Sleepers Big Boss Sounds
Жанр: Pop/Rock
Носитель: CD
Страна-производитель диска: US
Год издания: 1988
Издатель (лейбл): I.R.S. Records
Номер по каталогу: IRS-42194
Аудиокодек: FLAC (*.flac)
Тип рипа: image+.cue
Битрейт аудио: lossless
Продолжительность: 39:57
Источник (релизер): Собственный диск
Наличие сканов в содержимом раздачи: нет
Треклист:
01. Tried To Please Her 3:53
02. This Heart 3:37
03. I Wake Up Loving You 4:53
04. Mesmerized 4:14
05. If We Never Meet Again 4:23
06. Big Before It Bursts 4:00
07. May Lou 3:49
08. Big Boss Sounds 3:37
09. Notting Hill Gate 3:54
10. It Came Quick (And It Didn't Stay Long) 3:18
Код:
Exact Audio Copy V1.0 beta 3 from 29. August 2011
EAC extraction logfile from 20. April 2014, 20:31
Reckless Sleepers / Big Boss Sounds
Used drive  : HL-DT-STDVDRAM GSA-T20L   Adapter: 0  ID: 0
Read mode               : Secure
Utilize accurate stream : Yes
Defeat audio cache      : Yes
Make use of C2 pointers : No
Read offset correction                      : 667
Overread into Lead-In and Lead-Out          : No
Fill up missing offset samples with silence : Yes
Delete leading and trailing silent blocks   : No
Null samples used in CRC calculations       : Yes
Used interface                              : Native Win32 interface for Win NT & 2000
Used output format              : User Defined Encoder
Selected bitrate                : 128 kBit/s
Quality                         : High
Add ID3 tag                     : No
Command line compressor         : C:\Program Files (x86)\Exact Audio Copy\Flac\flac.exe
Additional command line options : -V -8 -T "Date=%year%" -T "Genre=%genre%" %source%
TOC of the extracted CD
     Track |   Start  |  Length  | Start sector | End sector
    ---------------------------------------------------------
        1  |  0:00.00 |  3:56.72 |         0    |    17771
        2  |  3:56.72 |  3:39.23 |     17772    |    34219
        3  |  7:36.20 |  4:56.10 |     34220    |    56429
        4  | 12:32.30 |  4:15.17 |     56430    |    75571
        5  | 16:47.47 |  4:24.45 |     75572    |    95416
        6  | 21:12.17 |  4:01.65 |     95417    |   113556
        7  | 25:14.07 |  3:51.33 |    113557    |   130914
        8  | 29:05.40 |  3:36.50 |    130915    |   147164
        9  | 32:42.15 |  3:55.37 |    147165    |   164826
       10  | 36:37.52 |  3:18.73 |    164827    |   179749
Range status and errors
Selected range
     Filename C:\Program Files (x86)\Exact Audio Copy\Flac\Reckless Sleepers - Big Boss Sounds.wav
     Peak level 86.0 %
     Extraction speed 3.8 X
     Range quality 100.0 %
     Test CRC D5FEEE49
     Copy CRC D5FEEE49
     Copy OK
No errors occurred
AccurateRip summary
Track  1  accurately ripped (confidence 3)  [3293DE74]  (AR v1)
Track  2  accurately ripped (confidence 3)  [2D32C3B5]  (AR v1)
Track  3  accurately ripped (confidence 3)  [2DC48ED6]  (AR v1)
Track  4  accurately ripped (confidence 3)  [6280995F]  (AR v1)
Track  5  accurately ripped (confidence 3)  [FC7D08C0]  (AR v1)
Track  6  accurately ripped (confidence 2)  [5CD6449F]  (AR v1)
Track  7  accurately ripped (confidence 3)  [B1D4B7C1]  (AR v1)
Track  8  accurately ripped (confidence 3)  [EDC6FD34]  (AR v1)
Track  9  accurately ripped (confidence 3)  [061B31EC]  (AR v1)
Track 10  accurately ripped (confidence 3)  [DC3FECFD]  (AR v1)
All tracks accurately ripped
End of status report
==== Log checksum 5F5669E0D044E3B458C20CC89A40E634F70ED380B2332E953D98471F8E695D2E ====
Код:
REM GENRE Rock
REM DISCID 91095C0A
REM COMMENT "ExactAudioCopy v1.0b3"
PERFORMER "Reckless Sleepers"
TITLE "Big Boss Sounds"
FILE "Reckless Sleepers - Big Boss Sounds.flac" WAVE
  TRACK 01 AUDIO
    TITLE "Tried To Please Her"
    PERFORMER "Reckless Sleepers"
    INDEX 01 00:00:00
  TRACK 02 AUDIO
    TITLE "This Heart"
    PERFORMER "Reckless Sleepers"
    INDEX 00 03:53:45
    INDEX 01 03:56:72
  TRACK 03 AUDIO
    TITLE "I Wake Up Loving You"
    PERFORMER "Reckless Sleepers"
    INDEX 01 07:36:20
  TRACK 04 AUDIO
    TITLE "Mesmerized"
    PERFORMER "Reckless Sleepers"
    INDEX 00 12:28:37
    INDEX 01 12:32:30
  TRACK 05 AUDIO
    TITLE "If We Never Meet Again"
    PERFORMER "Reckless Sleepers"
    INDEX 01 16:47:47
  TRACK 06 AUDIO
    TITLE "Big Before It Bursts"
    PERFORMER "Reckless Sleepers"
    INDEX 00 21:11:42
    INDEX 01 21:12:17
  TRACK 07 AUDIO
    TITLE "Mary Lou"
    PERFORMER "Reckless Sleepers"
    INDEX 00 25:12:37
    INDEX 01 25:14:07
  TRACK 08 AUDIO
    TITLE "Big Boss Sounds"
    PERFORMER "Reckless Sleepers"
    INDEX 00 29:04:67
    INDEX 01 29:05:40
  TRACK 09 AUDIO
    TITLE "Notting Hill Gate"
    PERFORMER "Reckless Sleepers"
    INDEX 01 32:42:15
  TRACK 10 AUDIO
    TITLE "It Came Quick (And It Didn't Stay Long)"
    PERFORMER "Reckless Sleepers"
    INDEX 01 36:37:52
Правила, инструкции, FAQ!!!
Торрент  Добавлен [26 мар 2019, 19:15] Скачать торрент Магнет ссылка
Скачать торрент
[ Размер 10.81 КБ / Просмотров 0 ]

Статус
Проверен 
 
Размер  259.4 МБ
Приватный: Нет (DHT включён)
.torrent скачан  0
 


     Отправить личное сообщение
   
Страница 1 из 1
Показать сообщения за:  Поле сортировки  
Начать новую тему Ответить на тему


Сейчас этот форум просматривают: нет зарегистрированных пользователей и гости: 0


Вы не можете начинать темы
Вы не можете отвечать на сообщения
Вы не можете редактировать свои сообщения
Вы не можете удалять свои сообщения
Вы не можете добавлять вложения

Перейти:  
cron