Начать новую тему Ответить на тему
Статистика раздачи
Размер: 403.65 МБ | Добавлен: 20 июл 2020, 17:48 | Скачали: 0
Сидеров: 1  [0 байт/сек]    Личеров: 0  [0 байт/сек]
Пред. тема | След. тема 

Автор
Сообщение

СообщениеДобавлено: 20 июл 2020, 17:48 

Ответить с цитатой 

Randy Newman / The Best Of Randy Newman
Жанр: Pop Rock
Носитель: CD
Страна-производитель диска (релиза): US
Год издания: 2001
Издатель (лейбл): Warner Archives ‎
Номер по каталогу: R2 74364
Аудиокодек: FLAC (*.flac)
Тип рипа: tracks+.cue
Продолжительность: 01:09:23
Источник: локальная сеть
Наличие сканов в содержимом раздачи: да
Треклист:
1 Mama Told Me Not To Come
2 You Can Leave Your Hat On
3 I Think It's Going To Rain Today
4 Sail Away
5 Political Science
6 Rednecks
7 Marie
8 Louisiana 1927
9 Short People
10 Little Criminals
11 It's Money That I Love
12 I Love L.A.
13 Miami
14 Take Me Back
15 Same Girl
16 Dixie Flyer
17 Happy Ending
18 You've Got A Friend In Me
19 Feels Like Home
20 Shame
21 I Miss You
Код:
Exact Audio Copy V0.99 prebeta 5 from 4. May 2009
EAC extraction logfile from 14. March 2010, 19:42
Randy Newman / The Best Of Randy Newman
Used drive  : JLMS    XJ-HD166S   Adapter: 0  ID: 1
Read mode               : Secure
Utilize accurate stream : Yes
Defeat audio cache      : Yes
Make use of C2 pointers : No
Read offset correction                      : 12
Overread into Lead-In and Lead-Out          : No
Fill up missing offset samples with silence : Yes
Delete leading and trailing silent blocks   : No
Null samples used in CRC calculations       : Yes
Used interface                              : Native Win32 interface for Win NT & 2000
Gap handling                                : Appended to previous track
Used output format              : User Defined Encoder
Selected bitrate                : 1024 kBit/s
Quality                         : High
Add ID3 tag                     : No
Command line compressor         : C:\Program Files\FLAC\flac.exe
Additional command line options : -V -8 -T "artist=%a" -T "title=%t" -T "album=%g" -T "date=%y" -T "tracknumber=%n" -T "genre=%m" %s
TOC of the extracted CD
     Track |   Start  |  Length  | Start sector | End sector
    ---------------------------------------------------------
        1  |  0:00.32 |  2:11.20 |        32    |     9876
        2  |  2:11.52 |  3:20.10 |      9877    |    24886
        3  |  5:31.62 |  2:57.65 |     24887    |    38226
        4  |  8:29.52 |  2:51.18 |     38227    |    51069
        5  | 11:20.70 |  2:00.27 |     51070    |    60096
        6  | 13:21.22 |  3:09.55 |     60097    |    74326
        7  | 16:31.02 |  3:09.35 |     74327    |    88536
        8  | 19:40.37 |  2:56.45 |     88537    |   101781
        9  | 22:37.07 |  2:55.28 |    101782    |   114934
       10  | 25:32.35 |  3:03.17 |    114935    |   128676
       11  | 28:35.52 |  3:39.65 |    128677    |   145166
       12  | 32:15.42 |  3:30.30 |    145167    |   160946
       13  | 35:45.72 |  4:04.05 |    160947    |   179251
       14  | 39:50.02 |  4:10.55 |    179252    |   198056
       15  | 44:00.57 |  2:55.10 |    198057    |   211191
       16  | 46:55.67 |  4:09.15 |    211192    |   229881
       17  | 51:05.07 |  3:19.10 |    229882    |   244816
       18  | 54:24.17 |  2:04.15 |    244817    |   254131
       19  | 56:28.32 |  4:13.00 |    254132    |   273106
       20  | 60:41.32 |  4:53.48 |    273107    |   295129
       21  | 65:35.05 |  3:56.02 |    295130    |   312831
Track  1
     Filename F:\James\Torrents\Uploads1\uploaded\Randy Newman - Best of\Randy Newman - 2001 - The Best Of Randy Newman\01 - Mama Told Me Not To Come.wav
     Pre-gap length  0:00:02.42
     Peak level 78.9 %
     Track quality 100.0 %
     Test CRC 7CF06743
     Copy CRC 7CF06743
     Accurately ripped (confidence 42)  [0342B07E]
     Copy OK
Track  2
     Filename F:\James\Torrents\Uploads1\uploaded\Randy Newman - Best of\Randy Newman - 2001 - The Best Of Randy Newman\02 - You Can Leave Your Hat On.wav
     Pre-gap length  0:00:03.93
     Peak level 99.9 %
     Track quality 100.0 %
     Test CRC 4487A953
     Copy CRC 4487A953
     Accurately ripped (confidence 39)  [4A5843BA]
     Copy OK
Track  3
     Filename F:\James\Torrents\Uploads1\uploaded\Randy Newman - Best of\Randy Newman - 2001 - The Best Of Randy Newman\03 - I Think It's Going To Rain Today.wav
     Pre-gap length  0:00:03.93
     Peak level 98.8 %
     Track quality 100.0 %
     Test CRC 8783F904
     Copy CRC 8783F904
     Accurately ripped (confidence 40)  [FC9B0A25]
     Copy OK
Track  4
     Filename F:\James\Torrents\Uploads1\uploaded\Randy Newman - Best of\Randy Newman - 2001 - The Best Of Randy Newman\04 - Sail Away.wav
     Pre-gap length  0:00:03.93
     Peak level 90.1 %
     Track quality 100.0 %
     Test CRC 91308026
     Copy CRC 91308026
     Accurately ripped (confidence 41)  [FEF775E4]
     Copy OK
Track  5
     Filename F:\James\Torrents\Uploads1\uploaded\Randy Newman - Best of\Randy Newman - 2001 - The Best Of Randy Newman\05 - Political Science.wav
     Pre-gap length  0:00:03.93
     Peak level 99.9 %
     Track quality 100.0 %
     Test CRC 589D1EDD
     Copy CRC 589D1EDD
     Accurately ripped (confidence 41)  [3E08BCDC]
     Copy OK
Track  6
     Filename F:\James\Torrents\Uploads1\uploaded\Randy Newman - Best of\Randy Newman - 2001 - The Best Of Randy Newman\06 - Rednecks.wav
     Pre-gap length  0:00:03.93
     Peak level 93.7 %
     Track quality 100.0 %
     Test CRC D6DB2CA6
     Copy CRC D6DB2CA6
     Accurately ripped (confidence 38)  [67E4F417]
     Copy OK
Track  7
     Filename F:\James\Torrents\Uploads1\uploaded\Randy Newman - Best of\Randy Newman - 2001 - The Best Of Randy Newman\07 - Marie.wav
     Pre-gap length  0:00:05.20
     Peak level 99.9 %
     Track quality 100.0 %
     Test CRC C0A860BB
     Copy CRC C0A860BB
     Accurately ripped (confidence 39)  [D3B5FBEC]
     Copy OK
Track  8
     Filename F:\James\Torrents\Uploads1\uploaded\Randy Newman - Best of\Randy Newman - 2001 - The Best Of Randy Newman\08 - Louisiana 1927.wav
     Pre-gap length  0:00:05.13
     Peak level 91.3 %
     Track quality 100.0 %
     Test CRC 8935CB12
     Copy CRC 8935CB12
     Accurately ripped (confidence 39)  [684DFEAB]
     Copy OK
Track  9
     Filename F:\James\Torrents\Uploads1\uploaded\Randy Newman - Best of\Randy Newman - 2001 - The Best Of Randy Newman\09 - Short People.wav
     Pre-gap length  0:00:05.00
     Peak level 99.9 %
     Track quality 100.0 %
     Test CRC 40AFC535
     Copy CRC 40AFC535
     Accurately ripped (confidence 40)  [951D997A]
     Copy OK
Track 10
     Filename F:\James\Torrents\Uploads1\uploaded\Randy Newman - Best of\Randy Newman - 2001 - The Best Of Randy Newman\10 - Little Criminals.wav
     Pre-gap length  0:00:03.93
     Peak level 99.1 %
     Track quality 100.0 %
     Test CRC 6C8F1FD7
     Copy CRC 6C8F1FD7
     Accurately ripped (confidence 39)  [58AB7F80]
     Copy OK
Track 11
     Filename F:\James\Torrents\Uploads1\uploaded\Randy Newman - Best of\Randy Newman - 2001 - The Best Of Randy Newman\11 - It's Money That I Love.wav
     Pre-gap length  0:00:03.93
     Peak level 95.5 %
     Track quality 100.0 %
     Test CRC 7C729ACC
     Copy CRC 7C729ACC
     Accurately ripped (confidence 38)  [16DBE99F]
     Copy OK
Track 12
     Filename F:\James\Torrents\Uploads1\uploaded\Randy Newman - Best of\Randy Newman - 2001 - The Best Of Randy Newman\12 - I Love L.A..wav
     Pre-gap length  0:00:03.93
     Peak level 94.5 %
     Track quality 100.0 %
     Test CRC B715B565
     Copy CRC B715B565
     Accurately ripped (confidence 39)  [BA23E65C]
     Copy OK
Track 13
     Filename F:\James\Torrents\Uploads1\uploaded\Randy Newman - Best of\Randy Newman - 2001 - The Best Of Randy Newman\13 - Miami.wav
     Pre-gap length  0:00:03.93
     Peak level 96.2 %
     Track quality 99.9 %
     Test CRC 400D8641
     Copy CRC 400D8641
     Accurately ripped (confidence 39)  [FC49EC08]
     Copy OK
Track 14
     Filename F:\James\Torrents\Uploads1\uploaded\Randy Newman - Best of\Randy Newman - 2001 - The Best Of Randy Newman\14 - Take Me Back.wav
     Pre-gap length  0:00:05.56
     Peak level 97.1 %
     Track quality 99.9 %
     Test CRC 3F0BCEE1
     Copy CRC 3F0BCEE1
     Accurately ripped (confidence 39)  [102BAA7C]
     Copy OK
Track 15
     Filename F:\James\Torrents\Uploads1\uploaded\Randy Newman - Best of\Randy Newman - 2001 - The Best Of Randy Newman\15 - Same Girl.wav
     Pre-gap length  0:00:05.22
     Peak level 92.2 %
     Track quality 100.0 %
     Test CRC 90D6D72A
     Copy CRC 90D6D72A
     Accurately ripped (confidence 39)  [E697A980]
     Copy OK
Track 16
     Filename F:\James\Torrents\Uploads1\uploaded\Randy Newman - Best of\Randy Newman - 2001 - The Best Of Randy Newman\16 - Dixie Flyer.wav
     Pre-gap length  0:00:03.93
     Peak level 97.2 %
     Track quality 100.0 %
     Test CRC F8C058B1
     Copy CRC F8C058B1
     Accurately ripped (confidence 39)  [C4922E19]
     Copy OK
Track 17
     Filename F:\James\Torrents\Uploads1\uploaded\Randy Newman - Best of\Randy Newman - 2001 - The Best Of Randy Newman\17 - Happy Ending.wav
     Pre-gap length  0:00:03.93
     Peak level 91.4 %
     Track quality 100.0 %
     Test CRC A167FE70
     Copy CRC A167FE70
     Accurately ripped (confidence 39)  [1C75C7DC]
     Copy OK
Track 18
     Filename F:\James\Torrents\Uploads1\uploaded\Randy Newman - Best of\Randy Newman - 2001 - The Best Of Randy Newman\18 - You've Got A Friend In Me.wav
     Pre-gap length  0:00:03.93
     Peak level 98.8 %
     Track quality 99.9 %
     Test CRC ED7563D8
     Copy CRC ED7563D8
     Accurately ripped (confidence 40)  [2015A6B8]
     Copy OK
Track 19
     Filename F:\James\Torrents\Uploads1\uploaded\Randy Newman - Best of\Randy Newman - 2001 - The Best Of Randy Newman\19 - Feels Like Home (Live - 1996).wav
     Pre-gap length  0:00:03.93
     Peak level 70.1 %
     Track quality 99.9 %
     Test CRC D79185C7
     Copy CRC D79185C7
     Accurately ripped (confidence 37)  [8945A96F]
     Copy OK
Track 20
     Filename F:\James\Torrents\Uploads1\uploaded\Randy Newman - Best of\Randy Newman - 2001 - The Best Of Randy Newman\20 - Shame.wav
     Pre-gap length  0:00:05.16
     Peak level 89.1 %
     Track quality 100.0 %
     Test CRC 821FB146
     Copy CRC 821FB146
     Accurately ripped (confidence 37)  [1BDF0CAD]
     Copy OK
Track 21
     Filename F:\James\Torrents\Uploads1\uploaded\Randy Newman - Best of\Randy Newman - 2001 - The Best Of Randy Newman\21 - I Miss You.wav
     Pre-gap length  0:00:04.97
     Peak level 84.1 %
     Track quality 100.0 %
     Test CRC 46B949C8
     Copy CRC 46B949C8
     Accurately ripped (confidence 35)  [42BFAE34]
     Copy OK
All tracks accurately ripped
No errors occurred
End of status report
Код:
REM GENRE Pop
REM DATE 2001
REM DISCID 2D104B15
REM COMMENT "ExactAudioCopy v0.99pb5"
FILE "01 Mama Told Me Not to Come.wav" WAVE
  TRACK 01 AUDIO
    PREGAP 00:00:32
    INDEX 01 00:00:00
  TRACK 02 AUDIO
    INDEX 00 02:07:25
FILE "02 You Can Leave Your Hat On.wav" WAVE
    INDEX 01 00:00:00
  TRACK 03 AUDIO
    INDEX 00 03:16:15
FILE "03 I Think It's Going to Rain Today.wav" WAVE
    INDEX 01 00:00:00
  TRACK 04 AUDIO
    INDEX 00 02:53:70
FILE "04 Sail Away.wav" WAVE
    INDEX 01 00:00:00
  TRACK 05 AUDIO
    INDEX 00 02:47:23
FILE "05 Political Science.wav" WAVE
    INDEX 01 00:00:00
  TRACK 06 AUDIO
    INDEX 00 01:56:32
FILE "06 Rednecks.wav" WAVE
    INDEX 01 00:00:00
  TRACK 07 AUDIO
    INDEX 00 03:04:40
FILE "07 Marie.wav" WAVE
    INDEX 01 00:00:00
  TRACK 08 AUDIO
    INDEX 00 03:04:25
FILE "08 Louisiana 1927.wav" WAVE
    INDEX 01 00:00:00
  TRACK 09 AUDIO
    INDEX 00 02:51:45
FILE "09 Short People.wav" WAVE
    INDEX 01 00:00:00
  TRACK 10 AUDIO
    INDEX 00 02:51:33
FILE "10 Little Criminals.wav" WAVE
    INDEX 01 00:00:00
  TRACK 11 AUDIO
    INDEX 00 02:59:22
FILE "11 It's Money That I Love.wav" WAVE
    INDEX 01 00:00:00
  TRACK 12 AUDIO
    INDEX 00 03:35:70
FILE "12 I Love L.A..wav" WAVE
    INDEX 01 00:00:00
  TRACK 13 AUDIO
    INDEX 00 03:26:35
FILE "13 Miami.wav" WAVE
    INDEX 01 00:00:00
  TRACK 14 AUDIO
    INDEX 00 03:58:38
FILE "14 Take Me Back.wav" WAVE
    INDEX 01 00:00:00
  TRACK 15 AUDIO
    INDEX 00 04:05:38
FILE "15 Same Girl.wav" WAVE
    INDEX 01 00:00:00
  TRACK 16 AUDIO
    INDEX 00 02:51:15
FILE "16 Dixie Flyer.wav" WAVE
    INDEX 01 00:00:00
  TRACK 17 AUDIO
    INDEX 00 04:05:20
FILE "17 Happy Ending.wav" WAVE
    INDEX 01 00:00:00
  TRACK 18 AUDIO
    INDEX 00 03:15:15
FILE "18 You've Got a Friend in Me.wav" WAVE
    INDEX 01 00:00:00
  TRACK 19 AUDIO
    INDEX 00 02:00:20
FILE "19 Feels Like Home (live).wav" WAVE
    INDEX 01 00:00:00
  TRACK 20 AUDIO
    INDEX 00 04:07:63
FILE "20 Shame.wav" WAVE
    INDEX 01 00:00:00
  TRACK 21 AUDIO
    INDEX 00 04:48:50
FILE "21 I Miss You.wav" WAVE
    INDEX 01 00:00:00
Правила, инструкции, FAQ!!!
Торрент  Добавлен [20 июл 2020, 17:48] Скачать торрент Магнет ссылка
Скачать торрент
[ Размер 18.1 КБ / Просмотров 5 ]

Статус
Проверен 
 
Размер  403.65 МБ
Приватный: Нет (DHT включён)
.torrent скачан  0
 


     Отправить личное сообщение
   
Страница 1 из 1
Показать сообщения за:  Поле сортировки  
Начать новую тему Ответить на тему


Сейчас этот форум просматривают: нет зарегистрированных пользователей и гости: 0


Вы не можете начинать темы
Вы не можете отвечать на сообщения
Вы не можете редактировать свои сообщения
Вы не можете удалять свои сообщения
Вы не можете добавлять вложения

Перейти:  
cron
cron