Начать новую тему Ответить на тему
Статистика раздачи
Размер: 486.42 МБ | Добавлен: 26 мар 2019, 18:52 | Скачали: 0
Сидеров: 0  [0 байт/сек]    Личеров: 0  [0 байт/сек]
Пред. тема | След. тема 

Автор
Сообщение

СообщениеДобавлено: 26 мар 2019, 18:52 

Ответить с цитатой 

Pur - Mächtig viel Theater
Жанр: Pop-Rock
Год выпуска диска: 1998
Производитель диска: Germany
Аудио кодек: FLAC
Тип рипа: tracks+.cue
Битрейт аудио: lossless
Продолжительность: 66:06
Трэклист:
1. Wenn du Da Bist
2. Treib Mich Weiter
3. Mach Es Nochma
4. Kinder Sind Tabu
5. Merlin's Pummelflug [instrumental]
6. Königin
7. Allein vor dem Spiegel
8. Endlich Ich
9. Gib Sie Her
10. Kleiner Prinz
11. Mächtig Viel Theater
12. Kowalski
13. Der Dumme
14. Ich Will Raus Hier
15. Geweint vor Glück
Доп. информация:
Exact Audio Copy V0.99 prebeta 4 from 23. January 2008
EAC extraction logfile from 10. April 2009, 12:20
PUR / Maechtig viel Theater
Used drive : PIONEER DVD-RW DVR-K16RS Adapter: 0 ID: 1
Read mode : Secure
Utilize accurate stream : Yes
Defeat audio cache : Yes
Make use of C2 pointers : No
Read offset correction : 48
Overread into Lead-In and Lead-Out : No
Fill up missing offset samples with silence : Yes
Delete leading and trailing silent blocks : No
Null samples used in CRC calculations : Yes
Used interface : Installed external ASPI interface
Gap handling : Appended to previous track
Used output format : User Defined Encoder
Selected bitrate : 768 kBit/s
Quality : High
Add ID3 tag : No
Command line compressor : C:\Program Files\EAC\FLAC\FLAC.EXE
Additional command line options : -8 -V -T "ARTIST=%a" -T "TITLE=%t" -T "ALBUM=%g" -T "DATE=%y" -T "TRACKNUMBER=%n" -T "GENRE=%m" -T "COMMENT=%e" %s -o %d
TOC of the extracted CD
Track | Start | Length | Start sector | End sector
---------------------------------------------------------
1 | 0:00.01 | 5:06.02 | 1 | 22952
2 | 5:06.03 | 5:30.00 | 22953 | 47702
3 | 10:36.03 | 4:22.70 | 47703 | 67422
4 | 14:58.73 | 4:49.05 | 67423 | 89102
5 | 19:48.03 | 0:46.71 | 89103 | 92623
6 | 20:34.74 | 4:45.09 | 92624 | 114007
7 | 25:20.08 | 4:57.04 | 114008 | 136286
8 | 30:17.12 | 4:11.65 | 136287 | 155176
9 | 34:29.02 | 6:10.66 | 155177 | 182992
10 | 40:39.68 | 5:04.00 | 182993 | 205792
11 | 45:43.68 | 5:11.64 | 205793 | 229181
12 | 50:55.57 | 0:34.25 | 229182 | 231756
13 | 51:30.07 | 4:07.11 | 231757 | 250292
14 | 55:37.18 | 6:41.45 | 250293 | 280412
15 | 62:18.63 | 3:53.32 | 280413 | 297919
Track 1
Filename D:\Temp\01 - Wenn Du da bist.wav
Pre-gap length 0:00:02.01
Peak level 99.6 %
Track quality 100.0 %
Test CRC 55CC1991
Copy CRC 55CC1991
Track not present in AccurateRip database
Copy OK
Track 2
Filename D:\Temp\02 - Treib mich weiter.wav
Peak level 100.0 %
Track quality 100.0 %
Test CRC DD879F2F
Copy CRC DD879F2F
Track not present in AccurateRip database
Copy OK
Track 3
Filename D:\Temp\03 - Mach es nochmal.wav
Peak level 99.6 %
Track quality 100.0 %
Test CRC D555C6F8
Copy CRC D555C6F8
Track not present in AccurateRip database
Copy OK
Track 4
Filename D:\Temp\04 - Kinder sind tabu.wav
Peak level 99.6 %
Track quality 100.0 %
Test CRC C545C9FA
Copy CRC C545C9FA
Track not present in AccurateRip database
Copy OK
Track 5
Filename D:\Temp\05 - Merlin's Pummelflug.wav
Peak level 99.6 %
Track quality 100.0 %
Test CRC DCC3A3EC
Copy CRC DCC3A3EC
Track not present in AccurateRip database
Copy OK
Track 6
Filename D:\Temp\06 - Koenigin.wav
Peak level 99.6 %
Track quality 100.0 %
Test CRC 7807FF3B
Copy CRC 7807FF3B
Track not present in AccurateRip database
Copy OK
Track 7
Filename D:\Temp\07 - Allein vor dem Spiegel.wav
Peak level 100.0 %
Track quality 100.0 %
Test CRC 530235E7
Copy CRC 530235E7
Track not present in AccurateRip database
Copy OK
Track 8
Filename D:\Temp\08 - Endlich ich.wav
Peak level 99.6 %
Track quality 100.0 %
Test CRC D1CD04C7
Copy CRC D1CD04C7
Track not present in AccurateRip database
Copy OK
Track 9
Filename D:\Temp\09 - Gib sie her.wav
Peak level 99.6 %
Track quality 99.9 %
Test CRC C40EF5C9
Copy CRC C40EF5C9
Track not present in AccurateRip database
Copy OK
Track 10
Filename D:\Temp\10 - Kleiner Prinz.wav
Peak level 99.6 %
Track quality 100.0 %
Test CRC E2481617
Copy CRC E2481617
Track not present in AccurateRip database
Copy OK
Track 11
Filename D:\Temp\11 - Maechtig viel Theater.wav
Peak level 99.6 %
Track quality 100.0 %
Test CRC C4621836
Copy CRC C4621836
Track not present in AccurateRip database
Copy OK
Track 12
Filename D:\Temp\12 - Kowalski 6.wav
Peak level 85.4 %
Track quality 100.0 %
Test CRC 0076F508
Copy CRC 0076F508
Track not present in AccurateRip database
Copy OK
Track 13
Filename D:\Temp\13 - Der Dumme.wav
Peak level 99.6 %
Track quality 100.0 %
Test CRC 9DAEFCB5
Copy CRC 9DAEFCB5
Track not present in AccurateRip database
Copy OK
Track 14
Filename D:\Temp\14 - Ich will raus hier.wav
Peak level 99.6 %
Track quality 100.0 %
Test CRC 249EC775
Copy CRC 249EC775
Track not present in AccurateRip database
Copy OK
Track 15
Filename D:\Temp\15 - Geweint vor Glück.wav
Peak level 99.6 %
Track quality 99.9 %
Test CRC AAAD3767
Copy CRC AAAD3767
Track not present in AccurateRip database
Copy OK
None of the tracks are present in the AccurateRip database
No errors occurred
End of status report
Правила, инструкции, FAQ!!!
Торрент  Добавлен [26 мар 2019, 18:52] Скачать торрент Магнет ссылка
Скачать торрент
[ Размер 20.79 КБ / Просмотров 0 ]

Статус
Проверен 
 
Размер  486.42 МБ
Приватный: Нет (DHT включён)
.torrent скачан  0
 


     Отправить личное сообщение
   
Страница 1 из 1
Показать сообщения за:  Поле сортировки  
Начать новую тему Ответить на тему


Сейчас этот форум просматривают: нет зарегистрированных пользователей и гости: 0


Вы не можете начинать темы
Вы не можете отвечать на сообщения
Вы не можете редактировать свои сообщения
Вы не можете удалять свои сообщения
Вы не можете добавлять вложения

Перейти:  
cron