Начать новую тему Ответить на тему
Статистика раздачи
Размер: 226.67 МБ | Добавлен: 26 мар 2019, 18:51 | Скачали: 0
Сидеров: 0  [0 байт/сек]    Личеров: 0  [0 байт/сек]
Пред. тема | След. тема 

Автор
Сообщение

СообщениеДобавлено: 26 мар 2019, 18:51 

Ответить с цитатой 

Something Corporate / Songs for Silent Movies [EP]
Жанр: Pop-Rock, Punk, Alternative
Год издания: 2003
Аудиокодек: FLAC (*.flac)
Тип рипа: tracks+.cue
Битрейт аудио: lossless
Продолжительность: 34:53
Источник (релизер): web
Наличие сканов в содержимом раздачи: нет
Треклист:
1. Punk Rock Princess (International Radio Edit)
2. Little
3. Konstatine
4. Walking By
5. Forget December
6. I Want to Save You (Acoustic)
7. Straw Dog (Live in London)
Код:
Exact Audio Copy V0.99 prebeta 3 from 28. July 2007
EAC extraction logfile from 10. September 2008, 12:35
Something Corporate / Songs For Silent Movies
Used drive  : ATAPI   DVD A  DH16A3L   Adapter: 2  ID: 1
Read mode               : Secure
Utilize accurate stream : Yes
Defeat audio cache      : Yes
Make use of C2 pointers : No
Read offset correction                      : 6
Overread into Lead-In and Lead-Out          : No
Fill up missing offset samples with silence : Yes
Delete leading and trailing silent blocks   : No
Null samples used in CRC calculations       : Yes
Used interface                              : Installed external ASPI interface
Gap handling                                : Appended to previous track
Used output format              : User Defined Encoder
Selected bitrate                : 192 kBit/s
Quality                         : High
Add ID3 tag                     : No
Command line compressor         : C:\Program Files\Exact Audio Copy\Flac\flac.exe
Additional command line options : -V -8 -T "artist=%a" -T "title=%t" -T "album=%g" -T "date=%y" -T "tracknumber=%n" -T "genre=%m" %s
TOC of the extracted CD
     Track |   Start  |  Length  | Start sector | End sector
    ---------------------------------------------------------
        1  |  0:00.00 |  3:45.67 |         0    |    16941
        2  |  3:45.67 |  4:54.73 |     16942    |    39064
        3  |  8:40.65 |  9:37.28 |     39065    |    82367
        4  | 18:18.18 |  4:34.28 |     82368    |   102945
        5  | 22:52.46 |  3:14.52 |    102946    |   117547
        6  | 26:07.23 |  4:42.23 |    117548    |   138720
        7  | 30:49.46 |  4:03.07 |    138721    |   156952
Track  1
     Filename C:\Users\Nate\Desktop\Work Folder\01 - Punk Rock Princess (Radio Edit).wav
     Pre-gap length  0:00:02.00
     Peak level 99.2 %
     Track quality 100.0 %
     Test CRC 71F56ECA
     Copy CRC 71F56ECA
     Track not present in AccurateRip database
     Copy OK
Track  2
     Filename C:\Users\Nate\Desktop\Work Folder\02 - Little.wav
     Pre-gap length  0:00:02.00
     Peak level 98.7 %
     Track quality 100.0 %
     Test CRC 3B666C28
     Copy CRC 3B666C28
     Track not present in AccurateRip database
     Copy OK
Track  3
     Filename C:\Users\Nate\Desktop\Work Folder\03 - Konstantine.wav
     Pre-gap length  0:00:02.00
     Peak level 97.6 %
     Track quality 100.0 %
     Test CRC 7FE08C12
     Copy CRC 7FE08C12
     Track not present in AccurateRip database
     Copy OK
Track  4
     Filename C:\Users\Nate\Desktop\Work Folder\04 - Walking By.wav
     Pre-gap length  0:00:02.00
     Peak level 99.8 %
     Track quality 100.0 %
     Test CRC 4029925E
     Copy CRC 4029925E
     Track not present in AccurateRip database
     Copy OK
Track  5
     Filename C:\Users\Nate\Desktop\Work Folder\05 - Forget December.wav
     Pre-gap length  0:00:02.00
     Peak level 98.2 %
     Track quality 100.0 %
     Test CRC 1E86658D
     Copy CRC 1E86658D
     Track not present in AccurateRip database
     Copy OK
Track  6
     Filename C:\Users\Nate\Desktop\Work Folder\06 - I Want To Save You (Acoustic).wav
     Pre-gap length  0:00:02.00
     Peak level 99.8 %
     Track quality 100.0 %
     Test CRC 47798C19
     Copy CRC 47798C19
     Track not present in AccurateRip database
     Copy OK
Track  7
     Filename C:\Users\Nate\Desktop\Work Folder\07 - Straw Dog (Live In London).wav
     Pre-gap length  0:00:02.00
     Peak level 98.8 %
     Track quality 99.9 %
     Test CRC 41C82305
     Copy CRC 41C82305
     Track not present in AccurateRip database
     Copy OK
None of the tracks are present in the AccurateRip database
No errors occurred
End of status report
Код:
REM GENRE Rock
REM DATE 2003
REM DISCID 4B082C07
REM COMMENT "ExactAudioCopy v0.99pb3"
PERFORMER "Something Corporate"
TITLE "Songs For Silent Movies"
FILE "01 - Punk Rock Princess (Radio Edit).wav" WAVE
  TRACK 01 AUDIO
    TITLE "Punk Rock Princess (Radio Edit)"
    PERFORMER "Something Corporate"
    ISRC 000000000000
    INDEX 01 00:00:00
  TRACK 02 AUDIO
    TITLE "Little"
    PERFORMER "Something Corporate"
    ISRC 000000000000
    INDEX 00 03:43:67
FILE "02 - Little.wav" WAVE
    INDEX 01 00:00:00
  TRACK 03 AUDIO
    TITLE "Konstantine"
    PERFORMER "Something Corporate"
    ISRC 000000000000
    INDEX 00 04:52:73
FILE "03 - Konstantine.wav" WAVE
    INDEX 01 00:00:00
  TRACK 04 AUDIO
    TITLE "Walking By"
    PERFORMER "Something Corporate"
    ISRC 000000000000
    INDEX 00 09:35:28
FILE "04 - Walking By.wav" WAVE
    INDEX 01 00:00:00
  TRACK 05 AUDIO
    TITLE "Forget December"
    PERFORMER "Something Corporate"
    ISRC 000000000000
    INDEX 00 04:32:28
FILE "05 - Forget December.wav" WAVE
    INDEX 01 00:00:00
  TRACK 06 AUDIO
    TITLE "I Want To Save You (Acoustic)"
    PERFORMER "Something Corporate"
    ISRC 000000000000
    INDEX 00 03:12:52
FILE "06 - I Want To Save You (Acoustic).wav" WAVE
    INDEX 01 00:00:00
  TRACK 07 AUDIO
    TITLE "Straw Dog (Live In London)"
    PERFORMER "Something Corporate"
    ISRC 000000000000
    INDEX 00 04:40:23
FILE "07 - Straw Dog (Live In London).wav" WAVE
    INDEX 01 00:00:00
Правила, инструкции, FAQ!!!
Торрент  Добавлен [26 мар 2019, 18:51] Скачать торрент Магнет ссылка
Скачать торрент
[ Размер 18.78 КБ / Просмотров 1 ]

Статус
Проверен 
 
Размер  226.67 МБ
Приватный: Нет (DHT включён)
.torrent скачан  0
 


     Отправить личное сообщение
   
Страница 1 из 1
Показать сообщения за:  Поле сортировки  
Начать новую тему Ответить на тему


Сейчас этот форум просматривают: нет зарегистрированных пользователей и гости: 0


Вы не можете начинать темы
Вы не можете отвечать на сообщения
Вы не можете редактировать свои сообщения
Вы не можете удалять свои сообщения
Вы не можете добавлять вложения

Перейти:  
cron