Начать новую тему Ответить на тему
Статистика раздачи
Размер: 463.99 МБ | Добавлен: 26 мар 2019, 19:35 | Скачали: 0
Сидеров: 0  [0 байт/сек]    Личеров: 0  [0 байт/сек]
Пред. тема | След. тема 

Автор
Сообщение

СообщениеДобавлено: 26 мар 2019, 19:35 

Ответить с цитатой 

Something Corporate / Leaving Through The Window [UK Edition]
Жанр: Pop-Rock, Punk, Alternative
Год издания: 2002
Аудиокодек: FLAC (*.flac)
Тип рипа: tracks+.cue
Битрейт аудио: lossless
Продолжительность: 1:06:56
Источник (релизер): web
Наличие сканов в содержимом раздачи: нет
Треклист:
01. I Want To Save You
02. Punk Rock Princess
03. I Woke Up In A Car
04. If You C Jordan
05. The Astronaut
06. Hurricane
07. Cavanaugh Park
08. Fall
09. Straw Dog
10. Good News
11. Drunk Girl
12. Not What It Seems
13. You're Gone
14. Walking By
15. Little
16. Globes & Maps
Код:
EAC extraction logfile from 20. July 2007, 12:08 for CD
Something Corporate / Leaving Through the Window
Used drive  : _NEC    DVD_RW ND-3530A   Adapter: 1  ID: 0
Read mode   : Secure with NO C2, accurate stream, disable cache
Read offset correction : 48
Overread into Lead-In and Lead-Out : No
Used output format : C:\Program Files\Exact Audio Copy\flac.exe   (User Defined Encoder)
                     192 kBit/s
                     Additional command line options : -V -8 -T "artist=%a" -T "title=%t" -T "album=%g" -T "date=%y" -T "tracknumber=%n" -T "genre=%m" %s
Other options      :
    Fill up missing offset samples with silence : Yes
    Delete leading and trailing silent blocks : No
    Installed external ASPI interface
Track  1
     Filename D:\Documents and Settings\James.049552820230.000\My Documents\My Music\flac files\Something Corporate - Leaving Through The Window (UK EDITION)\01 - Something Corporate - I Want to Save You.wav
     Pre-gap length  0:00:02.00
     Peak level 96.6 %
     Track quality 100.0 %
     Test CRC 046CB05D
     Copy CRC 046CB05D
     Copy OK
Track  2
     Filename D:\Documents and Settings\James.049552820230.000\My Documents\My Music\flac files\Something Corporate - Leaving Through The Window (UK EDITION)\02 - Something Corporate - Punk Rock Princess.wav
     Peak level 96.9 %
     Track quality 100.0 %
     Test CRC 440280E0
     Copy CRC 440280E0
     Copy OK
Track  3
     Filename D:\Documents and Settings\James.049552820230.000\My Documents\My Music\flac files\Something Corporate - Leaving Through The Window (UK EDITION)\03 - Something Corporate - I Woke Up in a Car.wav
     Peak level 96.4 %
     Track quality 100.0 %
     Test CRC 9F1D07A8
     Copy CRC 9F1D07A8
     Copy OK
Track  4
     Filename D:\Documents and Settings\James.049552820230.000\My Documents\My Music\flac files\Something Corporate - Leaving Through The Window (UK EDITION)\04 - Something Corporate - If You C Jordan.wav
     Peak level 98.1 %
     Track quality 100.0 %
     Test CRC 30EB6F7B
     Copy CRC 30EB6F7B
     Copy OK
Track  5
     Filename D:\Documents and Settings\James.049552820230.000\My Documents\My Music\flac files\Something Corporate - Leaving Through The Window (UK EDITION)\05 - Something Corporate - The Astronaut.wav
     Peak level 97.6 %
     Track quality 100.0 %
     Test CRC 21EBD8A0
     Copy CRC 21EBD8A0
     Copy OK
Track  6
     Filename D:\Documents and Settings\James.049552820230.000\My Documents\My Music\flac files\Something Corporate - Leaving Through The Window (UK EDITION)\06 - Something Corporate - Hurricane.wav
     Peak level 98.4 %
     Track quality 100.0 %
     Test CRC 61C36FA7
     Copy CRC 61C36FA7
     Copy OK
Track  7
     Filename D:\Documents and Settings\James.049552820230.000\My Documents\My Music\flac files\Something Corporate - Leaving Through The Window (UK EDITION)\07 - Something Corporate - Cavanaugh Park.wav
     Peak level 97.7 %
     Track quality 99.9 %
     Test CRC BF255850
     Copy CRC BF255850
     Copy OK
Track  8
     Filename D:\Documents and Settings\James.049552820230.000\My Documents\My Music\flac files\Something Corporate - Leaving Through The Window (UK EDITION)\08 - Something Corporate - Fall.wav
     Peak level 99.6 %
     Track quality 100.0 %
     Test CRC 8F0757E6
     Copy CRC 8F0757E6
     Copy OK
Track  9
     Filename D:\Documents and Settings\James.049552820230.000\My Documents\My Music\flac files\Something Corporate - Leaving Through The Window (UK EDITION)\09 - Something Corporate - Straw Dog.wav
     Peak level 98.5 %
     Track quality 99.9 %
     Test CRC D534F437
     Copy CRC D534F437
     Copy OK
Track 10
     Filename D:\Documents and Settings\James.049552820230.000\My Documents\My Music\flac files\Something Corporate - Leaving Through The Window (UK EDITION)\10 - Something Corporate - Good News.wav
     Peak level 97.9 %
     Track quality 100.0 %
     Test CRC FA5F0322
     Copy CRC FA5F0322
     Copy OK
Track 11
     Filename D:\Documents and Settings\James.049552820230.000\My Documents\My Music\flac files\Something Corporate - Leaving Through The Window (UK EDITION)\11 - Something Corporate - Drunk Girl.wav
     Peak level 98.1 %
     Track quality 100.0 %
     Test CRC 39CD2357
     Copy CRC 39CD2357
     Copy OK
Track 12
     Filename D:\Documents and Settings\James.049552820230.000\My Documents\My Music\flac files\Something Corporate - Leaving Through The Window (UK EDITION)\12 - Something Corporate - Not What it Seems.wav
     Peak level 98.3 %
     Track quality 99.9 %
     Test CRC CF61073F
     Copy CRC CF61073F
     Copy OK
Track 13
     Filename D:\Documents and Settings\James.049552820230.000\My Documents\My Music\flac files\Something Corporate - Leaving Through The Window (UK EDITION)\13 - Something Corporate - You're Gone.wav
     Peak level 96.3 %
     Track quality 100.0 %
     Test CRC B9BD17C0
     Copy CRC B9BD17C0
     Copy OK
Track 14
     Filename D:\Documents and Settings\James.049552820230.000\My Documents\My Music\flac files\Something Corporate - Leaving Through The Window (UK EDITION)\14 - Something Corporate - Walking By.wav
     Peak level 87.3 %
     Track quality 100.0 %
     Test CRC 1D088E3D
     Copy CRC 1D088E3D
     Copy OK
Track 15
     Filename D:\Documents and Settings\James.049552820230.000\My Documents\My Music\flac files\Something Corporate - Leaving Through The Window (UK EDITION)\15 - Something Corporate - Little.wav
     Peak level 98.0 %
     Track quality 100.0 %
     Test CRC 767D5EF4
     Copy CRC 767D5EF4
     Copy OK
Track 16
     Filename D:\Documents and Settings\James.049552820230.000\My Documents\My Music\flac files\Something Corporate - Leaving Through The Window (UK EDITION)\16 - Something Corporate - Globes and Maps.wav
     Peak level 94.3 %
     Track quality 100.0 %
     Test CRC 99DB4044
     Copy CRC 99DB4044
     Copy OK
No errors occured
End of status report
Код:
REM GENRE Rock
REM DATE 2002
REM DISCID E30FB010
REM COMMENT "ExactAudioCopy v0.95b3"
PERFORMER "Something Corporate"
TITLE "Leaving Through the Window"
FILE "01 - Something Corporate - I Want to Save You.wav" WAVE
  TRACK 01 AUDIO
    TITLE "I Want to Save You"
    PERFORMER "Something Corporate"
    INDEX 01 00:00:00
FILE "02 - Something Corporate - Punk Rock Princess.wav" WAVE
  TRACK 02 AUDIO
    TITLE "Punk Rock Princess"
    PERFORMER "Something Corporate"
    INDEX 01 00:00:00
FILE "03 - Something Corporate - I Woke Up in a Car.wav" WAVE
  TRACK 03 AUDIO
    TITLE "I Woke Up in a Car"
    PERFORMER "Something Corporate"
    INDEX 01 00:00:00
FILE "04 - Something Corporate - If You C Jordan.wav" WAVE
  TRACK 04 AUDIO
    TITLE "If You C Jordan"
    PERFORMER "Something Corporate"
    INDEX 01 00:00:00
FILE "05 - Something Corporate - The Astronaut.wav" WAVE
  TRACK 05 AUDIO
    TITLE "The Astronaut"
    PERFORMER "Something Corporate"
    INDEX 01 00:00:00
FILE "06 - Something Corporate - Hurricane.wav" WAVE
  TRACK 06 AUDIO
    TITLE "Hurricane"
    PERFORMER "Something Corporate"
    INDEX 01 00:00:00
FILE "07 - Something Corporate - Cavanaugh Park.wav" WAVE
  TRACK 07 AUDIO
    TITLE "Cavanaugh Park"
    PERFORMER "Something Corporate"
    INDEX 01 00:00:00
FILE "08 - Something Corporate - Fall.wav" WAVE
  TRACK 08 AUDIO
    TITLE "Fall"
    PERFORMER "Something Corporate"
    INDEX 01 00:00:00
FILE "09 - Something Corporate - Straw Dog.wav" WAVE
  TRACK 09 AUDIO
    TITLE "Straw Dog"
    PERFORMER "Something Corporate"
    INDEX 01 00:00:00
FILE "10 - Something Corporate - Good News.wav" WAVE
  TRACK 10 AUDIO
    TITLE "Good News"
    PERFORMER "Something Corporate"
    INDEX 01 00:00:00
FILE "11 - Something Corporate - Drunk Girl.wav" WAVE
  TRACK 11 AUDIO
    TITLE "Drunk Girl"
    PERFORMER "Something Corporate"
    INDEX 01 00:00:00
FILE "12 - Something Corporate - Not What it Seems.wav" WAVE
  TRACK 12 AUDIO
    TITLE "Not What it Seems"
    PERFORMER "Something Corporate"
    INDEX 01 00:00:00
FILE "13 - Something Corporate - You're Gone.wav" WAVE
  TRACK 13 AUDIO
    TITLE "You're Gone"
    PERFORMER "Something Corporate"
    INDEX 01 00:00:00
FILE "14 - Something Corporate - Walking By.wav" WAVE
  TRACK 14 AUDIO
    TITLE "Walking By"
    PERFORMER "Something Corporate"
    INDEX 01 00:00:00
FILE "15 - Something Corporate - Little.wav" WAVE
  TRACK 15 AUDIO
    TITLE "Little"
    PERFORMER "Something Corporate"
    INDEX 01 00:00:00
FILE "16 - Something Corporate - Globes and Maps.wav" WAVE
  TRACK 16 AUDIO
    TITLE "Globes and Maps"
    PERFORMER "Something Corporate"
    INDEX 01 00:00:00
Правила, инструкции, FAQ!!!
Торрент  Добавлен [26 мар 2019, 19:35] Скачать торрент Магнет ссылка
Скачать торрент
[ Размер 19.95 КБ / Просмотров 3 ]

Статус
Проверен 
 
Размер  463.99 МБ
Приватный: Нет (DHT включён)
.torrent скачан  0
 


     Отправить личное сообщение
   
Страница 1 из 1
Показать сообщения за:  Поле сортировки  
Начать новую тему Ответить на тему


Сейчас этот форум просматривают: нет зарегистрированных пользователей и гости: 0


Вы не можете начинать темы
Вы не можете отвечать на сообщения
Вы не можете редактировать свои сообщения
Вы не можете удалять свои сообщения
Вы не можете добавлять вложения

Перейти:  
cron