Начать новую тему Ответить на тему
Статистика раздачи
Размер: 167.52 МБ | Добавлен: 26 мар 2019, 18:51 | Скачали: 0
Сидеров: 0  [0 байт/сек]    Личеров: 0  [0 байт/сек]
Пред. тема | След. тема 

Автор
Сообщение

СообщениеДобавлено: 26 мар 2019, 18:51 

Ответить с цитатой 

Something Corporate / Audioboxer [EP]
Жанр: Pop-Rock, Punk, Alternative
Год издания: 2001
Аудиокодек: FLAC (*.flac)
Тип рипа: tracks+.cue
Битрейт аудио: lossless
Продолжительность: 25:00
Источник (релизер): web
Наличие сканов в содержимом раздачи: нет
Треклист:
1. (Hurricane) The Formal Weather Pattern
2. If You C Jordan
3. Punk Rock Princess
4. Bad Days
5. Little
6. Walking By
Код:
EAC extraction logfile from 4. May 2007, 15:57 for CD
Something Corporate / Audioboxer
Used drive  : SONY    DVD+-RW DW-D56A   Adapter: 1  ID: 0
Read mode   : Secure with NO C2, accurate stream, disable cache
Read offset correction : 12
Overread into Lead-In and Lead-Out : No
Used output format : C:\Program Files\Exact Audio Copy\flac-1.1.4-win\bin\flac.exe   (User Defined Encoder)
                     192 kBit/s
                     Additional command line options : -V -5 -T "artist=%a" -T "title=%t" -T "album=%g" -T "date=%y" -T "tracknumber=%n" -T "genre=%m" %s
Other options      :
    Fill up missing offset samples with silence : Yes
    Delete leading and trailing silent blocks : No
    Installed external ASPI interface
Track  1
     Filename C:\Documents and Settings\John\My Documents\Downloads\Audioboxer FLAC\01 - Something Corporate - (Hurricane) The Formal Weather Pattern.wav
     Pre-gap length  0:00:02.00
     Peak level 99.8 %
     Track quality 100.0 %
     Test CRC 4291E4FF
     Copy CRC 4291E4FF
     Copy OK
Track  2
     Filename C:\Documents and Settings\John\My Documents\Downloads\Audioboxer FLAC\02 - Something Corporate - If You C Jordan.wav
     Peak level 99.8 %
     Track quality 100.0 %
     Test CRC 9B3402A6
     Copy CRC 9B3402A6
     Copy OK
Track  3
     Filename C:\Documents and Settings\John\My Documents\Downloads\Audioboxer FLAC\03 - Something Corporate - Punk Rock Princess.wav
     Peak level 99.8 %
     Track quality 100.0 %
     Test CRC 9613EDCF
     Copy CRC 9613EDCF
     Copy OK
Track  4
     Filename C:\Documents and Settings\John\My Documents\Downloads\Audioboxer FLAC\04 - Something Corporate - Bad Days.wav
     Peak level 99.8 %
     Track quality 100.0 %
     Test CRC AEBEFA90
     Copy CRC AEBEFA90
     Copy OK
Track  5
     Filename C:\Documents and Settings\John\My Documents\Downloads\Audioboxer FLAC\05 - Something Corporate - Little.wav
     Peak level 99.8 %
     Track quality 100.0 %
     Test CRC 731BC848
     Copy CRC 731BC848
     Copy OK
Track  6
     Filename C:\Documents and Settings\John\My Documents\Downloads\Audioboxer FLAC\06 - Something Corporate - Walking By.wav
     Peak level 99.8 %
     Track quality 100.0 %
     Test CRC C6B13C3C
     Copy CRC C6B13C3C
     Copy OK
No errors occured
End of status report
Код:
REM GENRE Punk
REM DATE 2001
REM DISCID 3D05DB06
REM COMMENT "ExactAudioCopy v0.95b3"
PERFORMER "Something Corporate"
TITLE "Audioboxer"
FILE "01 - Something Corporate - (Hurricane) The Formal Weather Pattern.wav" WAVE
  TRACK 01 AUDIO
    TITLE "(Hurricane) The Formal Weather Pattern"
    PERFORMER "Something Corporate"
    INDEX 01 00:00:00
FILE "02 - Something Corporate - If You C Jordan.wav" WAVE
  TRACK 02 AUDIO
    TITLE "If You C Jordan"
    PERFORMER "Something Corporate"
    INDEX 01 00:00:00
FILE "03 - Something Corporate - Punk Rock Princess.wav" WAVE
  TRACK 03 AUDIO
    TITLE "Punk Rock Princess"
    PERFORMER "Something Corporate"
    INDEX 01 00:00:00
FILE "04 - Something Corporate - Bad Days.wav" WAVE
  TRACK 04 AUDIO
    TITLE "Bad Days"
    PERFORMER "Something Corporate"
    INDEX 01 00:00:00
FILE "05 - Something Corporate - Little.wav" WAVE
  TRACK 05 AUDIO
    TITLE "Little"
    PERFORMER "Something Corporate"
    INDEX 01 00:00:00
FILE "06 - Something Corporate - Walking By.wav" WAVE
  TRACK 06 AUDIO
    TITLE "Walking By"
    PERFORMER "Something Corporate"
    INDEX 01 00:00:00
Правила, инструкции, FAQ!!!
Торрент  Добавлен [26 мар 2019, 18:51] Скачать торрент Магнет ссылка
Скачать торрент
[ Размер 14.16 КБ / Просмотров 0 ]

Статус
Проверен 
 
Размер  167.52 МБ
Приватный: Нет (DHT включён)
.torrent скачан  0
 


     Отправить личное сообщение
   
Страница 1 из 1
Показать сообщения за:  Поле сортировки  
Начать новую тему Ответить на тему


Сейчас этот форум просматривают: нет зарегистрированных пользователей и гости: 0


Вы не можете начинать темы
Вы не можете отвечать на сообщения
Вы не можете редактировать свои сообщения
Вы не можете удалять свои сообщения
Вы не можете добавлять вложения

Перейти:  
cron