Начать новую тему Ответить на тему
Статистика раздачи
Размер: 310.84 МБ | Добавлен: 26 мар 2019, 19:55 | Скачали: 0
Сидеров: 0  [0 байт/сек]    Личеров: 0  [0 байт/сек]
Пред. тема | След. тема 

Автор
Сообщение

СообщениеДобавлено: 26 мар 2019, 19:55 

Ответить с цитатой 

Eugenio Finardi - La Forza Dell'Amore
Жанр: Pop Rock / Prog Rock
Год выпуска диска: 1990
Производитель диска: Италия
Аудио кодек: FLAC
Тип рипа: tracks+.cue
Битрейт аудио: lossless
Продолжительность: 49 мин 27 сек
Трэклист:
01 Extraterrestre {4:38}
02 La Forza Dell'Amore {4:26}
03 Le Ragazze Di Osaka {4:09}
04 Musica Ribelle {5:10}
05 Amore Diverso {5:18}
06 Patrizia {3:14}
07 Oggi Ho Imparato A Volare {3:05}
08 Soweto {5:43}
09 Dolce Italia {4:28}
10 Non E Nel Cuore {3:28}
11 Una Notte In Italia {4:08}
12 La Radio {1:41}
Код:
Exact Audio Copy V0.99 prebeta 4 from 23. January 2008
EAC extraction logfile from 24. July 2009, 20:24
Eugenio Finardi / La Forza Dell'Amore
Used drive  : PIONEER DVD-RW  DVR-212   Adapter: 5  ID: 0
Read mode               : Secure
Utilize accurate stream : Yes
Defeat audio cache      : Yes
Make use of C2 pointers : No
Read offset correction                      : 48
Overread into Lead-In and Lead-Out          : No
Fill up missing offset samples with silence : Yes
Delete leading and trailing silent blocks   : No
Null samples used in CRC calculations       : Yes
Used interface                              : Installed external ASPI interface
Gap handling                                : Appended to previous track
Used output format              : User Defined Encoder
Selected bitrate                : 1024 kBit/s
Quality                         : High
Add ID3 tag                     : No
Command line compressor         : C:\Programmi\Exact Audio Copy\FLAC\FLAC.EXE
Additional command line options : -8 -V -T “ARTIST=%a” -T “TITLE=%t” -T “ALBUM=%g” -T “DATE=%y” -T “TRACKNUMBER=%n” -T “GENRE=%m” -T “COMMENT=%e” %s -o %d
TOC of the extracted CD
     Track |   Start  |  Length  | Start sector | End sector
    ---------------------------------------------------------
        1  |  0:00.32 |  4:38.35 |        32    |    20916
        2  |  4:38.67 |  4:25.53 |     20917    |    40844
        3  |  9:04.45 |  4:08.62 |     40845    |    59506
        4  | 13:13.32 |  5:10.25 |     59507    |    82781
        5  | 18:23.57 |  5:18.18 |     82782    |   106649
        6  | 23:42.00 |  3:13.62 |    106650    |   121186
        7  | 26:55.62 |  3:05.00 |    121187    |   135061
        8  | 30:00.62 |  5:42.45 |    135062    |   160756
        9  | 35:43.32 |  4:28.00 |    160757    |   180856
       10  | 40:11.32 |  3:27.48 |    180857    |   196429
       11  | 43:39.05 |  4:08.35 |    196430    |   215064
       12  | 47:47.40 |  1:40.42 |    215065    |   222606
Track  1
     Filename C:\Documents and Settings\MOSTRO\Desktop\Relase da fare\Flac\Finardi\Extraterrestre.wav
     Pre-gap length  0:00:02.32
     Peak level 97.9 %
     Track quality 100.0 %
     Test CRC 689702F0
     Copy CRC 689702F0
     Cannot be verified as accurate (confidence 2)  [9AC851AD], AccurateRip returned [EEF9190B]
     Copy OK
Track  2
     Filename C:\Documents and Settings\MOSTRO\Desktop\Relase da fare\Flac\Finardi\La Forza Dell'Amore.wav
     Peak level 91.8 %
     Track quality 100.0 %
     Test CRC 3518FC88
     Copy CRC 3518FC88
     Cannot be verified as accurate (confidence 2)  [51BD5EA5], AccurateRip returned [3DEAFEBA]
     Copy OK
Track  3
     Filename C:\Documents and Settings\MOSTRO\Desktop\Relase da fare\Flac\Finardi\Le Ragazze Di Osaka.wav
     Peak level 93.9 %
     Track quality 100.0 %
     Test CRC 0852D06D
     Copy CRC 0852D06D
     Cannot be verified as accurate (confidence 2)  [1EA20468], AccurateRip returned [3735EF1A]
     Copy OK
Track  4
     Filename C:\Documents and Settings\MOSTRO\Desktop\Relase da fare\Flac\Finardi\Musica Ribelle.wav
     Suspicious position 0:04:11 - 0:04:12
     Peak level 91.8 %
     Track quality 99.7 %
     Test CRC 6CA55D9C
     Copy CRC 63DD403D
     Cannot be verified as accurate (confidence 2)  [6EE7B447], AccurateRip returned [21AF219C]
     Copy finished
Track  5
     Filename C:\Documents and Settings\MOSTRO\Desktop\Relase da fare\Flac\Finardi\Amore Diverso.wav
     Peak level 98.3 %
     Track quality 99.5 %
     Test CRC B9F1F659
     Copy CRC 254EACEE
     Cannot be verified as accurate (confidence 2)  [C997E818], AccurateRip returned [9B5496EB]
     Copy finished
Track  6
     Filename C:\Documents and Settings\MOSTRO\Desktop\Relase da fare\Flac\Finardi\Patrizia.wav
     Peak level 98.8 %
     Track quality 97.9 %
     Test CRC 56E64757
     Copy CRC 8B765701
     Cannot be verified as accurate (confidence 2)  [20AEF429], AccurateRip returned [F7D19DF2]
     Copy finished
Track  7
     Filename C:\Documents and Settings\MOSTRO\Desktop\Relase da fare\Flac\Finardi\Oggi Ho Imparato A Volare.wav
     Peak level 97.9 %
     Track quality 98.5 %
     Test CRC BE27CCEA
     Copy CRC 7B0E68FF
     Cannot be verified as accurate (confidence 2)  [CACA33C0], AccurateRip returned [DD8A5775]
     Copy finished
Track  8
     Filename C:\Documents and Settings\MOSTRO\Desktop\Relase da fare\Flac\Finardi\Soweto.wav
     Peak level 99.4 %
     Track quality 99.9 %
     Test CRC AD061659
     Copy CRC AD061659
     Cannot be verified as accurate (confidence 2)  [103A1A0B], AccurateRip returned [6B18C37A]
     Copy OK
Track  9
     Filename C:\Documents and Settings\MOSTRO\Desktop\Relase da fare\Flac\Finardi\Dolce Italia.wav
     Peak level 96.5 %
     Track quality 100.0 %
     Test CRC 5A4E851A
     Copy CRC 5A4E851A
     Cannot be verified as accurate (confidence 2)  [CA154F7B], AccurateRip returned [96896CE4]
     Copy OK
Track 10
     Filename C:\Documents and Settings\MOSTRO\Desktop\Relase da fare\Flac\Finardi\Non И Nel Cuore.wav
     Peak level 91.8 %
     Track quality 100.0 %
     Test CRC 936E8E23
     Copy CRC 936E8E23
     Cannot be verified as accurate (confidence 2)  [09DA3E13], AccurateRip returned [7AE91046]
     Copy OK
Track 11
     Filename C:\Documents and Settings\MOSTRO\Desktop\Relase da fare\Flac\Finardi\Una Notte In Italia.wav
     Peak level 96.4 %
     Track quality 100.0 %
     Test CRC C7DCDC8D
     Copy CRC C7DCDC8D
     Cannot be verified as accurate (confidence 2)  [6FDEE874], AccurateRip returned [95E1FD9D]
     Copy OK
Track 12
     Filename C:\Documents and Settings\MOSTRO\Desktop\Relase da fare\Flac\Finardi\La Radio.wav
     Peak level 96.5 %
     Track quality 100.0 %
     Test CRC 8DE77F94
     Copy CRC 8DE77F94
     Cannot be verified as accurate (confidence 2)  [85D5EB80], AccurateRip returned [DD006847]
     Copy OK
No tracks could be verified as accurate
No errors occurred
End of status report
AUDIOCHECKER v2.0 beta (build 457) - by Dester - opdester@freemail.hu
~~~~~~~~~~~~~~~~~~~~~~~~~~~~~~~~~~
Started at: воскресенье, 20. 09. 2009. - 7:26.57
12 files found
01 -===- G:\- раздаю -\Eugebio_Finardi_-_La_forza_dell'amore_(1990)_[rutracker.org]\01 Extraterrestre.flac
Extracted successfully
Conclusion: this track is CDDA with probability 100%
Tempfile successfully deleted.
02 -===- G:\- раздаю -\Eugebio_Finardi_-_La_forza_dell'amore_(1990)_[rutracker.org]\02 La Forza Dell'Amore.flac
Extracted successfully
Conclusion: this track is CDDA with probability 100%
Tempfile successfully deleted.
03 -===- G:\- раздаю -\Eugebio_Finardi_-_La_forza_dell'amore_(1990)_[rutracker.org]\03 Le Ragazze Di Osaka.flac
Extracted successfully
Conclusion: this track is CDDA with probability 100%
Tempfile successfully deleted.
04 -===- G:\- раздаю -\Eugebio_Finardi_-_La_forza_dell'amore_(1990)_[rutracker.org]\04 Musica Ribelle.flac
Extracted successfully
Conclusion: this track is CDDA with probability 100%
Tempfile successfully deleted.
05 -===- G:\- раздаю -\Eugebio_Finardi_-_La_forza_dell'amore_(1990)_[rutracker.org]\05 Amore Diverso.flac
Extracted successfully
Conclusion: this track is CDDA with probability 100%
Tempfile successfully deleted.
06 -===- G:\- раздаю -\Eugebio_Finardi_-_La_forza_dell'amore_(1990)_[rutracker.org]\06 Patrizia.flac
Extracted successfully
Conclusion: this track is CDDA with probability 100%
Tempfile successfully deleted.
07 -===- G:\- раздаю -\Eugebio_Finardi_-_La_forza_dell'amore_(1990)_[rutracker.org]\07 Oggi Ho Imparato A Volare.flac
Extracted successfully
Conclusion: this track is CDDA with probability 100%
Tempfile successfully deleted.
08 -===- G:\- раздаю -\Eugebio_Finardi_-_La_forza_dell'amore_(1990)_[rutracker.org]\08 Soweto.flac
Extracted successfully
Conclusion: this track is CDDA with probability 100%
Tempfile successfully deleted.
09 -===- G:\- раздаю -\Eugebio_Finardi_-_La_forza_dell'amore_(1990)_[rutracker.org]\09 Dolce Italia.flac
Extracted successfully
Conclusion: this track is CDDA with probability 100%
Tempfile successfully deleted.
10 -===- G:\- раздаю -\Eugebio_Finardi_-_La_forza_dell'amore_(1990)_[rutracker.org]\10 Non E Nel Cuore.flac
Extracted successfully
Conclusion: this track is CDDA with probability 100%
Tempfile successfully deleted.
11 -===- G:\- раздаю -\Eugebio_Finardi_-_La_forza_dell'amore_(1990)_[rutracker.org]\11 Una Notte In Italia.flac
Extracted successfully
Conclusion: this track is CDDA with probability 100%
Tempfile successfully deleted.
12 -===- G:\- раздаю -\Eugebio_Finardi_-_La_forza_dell'amore_(1990)_[rutracker.org]\12 La Radio.flac
Extracted successfully
Conclusion: this track is CDDA with probability 100%
Tempfile successfully deleted.
Finished at: воскресенье, 20. 09. 2009. - 7:34.34 (operation time: 0:07.36)
This album () seems to be CDDA with probability 100,00%
Доп. информация: Источник - h33t (релизёр expgroupuf )
Правила, инструкции, FAQ!!!
Торрент  Добавлен [26 мар 2019, 19:55] Скачать торрент Магнет ссылка
Скачать торрент
[ Размер 13.52 КБ / Просмотров 6 ]

Статус
Проверен 
 
Размер  310.84 МБ
Приватный: Нет (DHT включён)
.torrent скачан  0
 


     Отправить личное сообщение
   
Страница 1 из 1
Показать сообщения за:  Поле сортировки  
Начать новую тему Ответить на тему


Сейчас этот форум просматривают: нет зарегистрированных пользователей и гости: 0


Вы не можете начинать темы
Вы не можете отвечать на сообщения
Вы не можете редактировать свои сообщения
Вы не можете удалять свои сообщения
Вы не можете добавлять вложения

Перейти:  
cron