Начать новую тему Ответить на тему
Статистика раздачи
Размер: 365.85 МБ | Добавлен: 26 мар 2019, 20:02 | Скачали: 1
Сидеров: 5  [0 байт/сек]    Личеров: 1  [0 байт/сек]
Пред. тема | След. тема 

Автор
Сообщение

СообщениеДобавлено: 26 мар 2019, 20:02 

Ответить с цитатой 

Deckchair Poets (ex-Jerusalem) - Who Needs Pyjamas
feat. Geoff Downes and Nick D’Virgilio
Жанр: Pop Rock / Prog related
Страна: UK
Год издания диска: 2013
Издатель (Label): Angel Air
Catalog Nr.: SJPCD410
Тип рипа: image+.cue (test©)
Битрейт аудио: lossless
Продолжительность: 49:02
Источник: свой рип
Трэклист:
1. Toilet - The household necessities trilogy - part 1 [0:21]
2. Brown Trousers [4:22]
3. Washing Machine - The household necessities triology - part2 [0:24]
4. Human Pie [4:46]
5. One Ugly Child [2:38]
6. Buddha In The Nude [0:51]
7. You’re So Square (Baby I Don't Care) [1:41]
8. Sunshine [4:08]
9. Silver Fish [0:15]
10. Walking In A Crocodile [05:12]
11. Whipsnade Escapees [3:00]
12. Elephants, Not Ivory [3:59]
13. Crem’ [0:34]
14. You’ll Never Catch This Boy [3:44]
15. Wicked Annabella [2:51]
16. Refrigerator - The household necessities - part 3 [0:33]
17. Sunset Strip [4:04]
18. Hobgoblins And Fiends [5:31]
Total time: 49:02
Доп. информация: Известные прог-музыканты выпустили осенью уходящего года альбом, больше похожий на шутку. Музыка в основном в классическом рок-н-рольном духе, озорная и бесшабашная, заставляет забыть, что её исполняют мастера прогрессива. Но при этом, как исполняют! Всё сделано красиво и со вкусом. Попробуйте. Мои наилучшие рекомендации.
Lynden Williams, Geoff Downes, Nick D’Virgilio, Ollie Hannifan and Ashley Cutler
with special guests:
Rachel Hall, Will ‘Harmonica’ Wilde and Rachel Hawnt
Код:
Exact Audio Copy V1.0 beta 3 from 29. August 2011
EAC extraction logfile from 21. December 2013, 19:31
Deckchair Poets / Who Needs Pyjamas
Used drive  : TEAC    CD-W516EB   Adapter: 0  ID: 0
Read mode               : Secure
Utilize accurate stream : Yes
Defeat audio cache      : Yes
Make use of C2 pointers : No
Read offset correction                      : 685
Overread into Lead-In and Lead-Out          : No
Fill up missing offset samples with silence : Yes
Delete leading and trailing silent blocks   : No
Null samples used in CRC calculations       : Yes
Used interface                              : Native Win32 interface for Win NT & 2000
Used output format              : User Defined Encoder
Selected bitrate                : 1024 kBit/s
Quality                         : High
Add ID3 tag                     : Yes
Command line compressor         : C:\Program Files (x86)\FLAC\flac.exe
Additional command line options : -6 -V -T "ARTIST=%artist%" -T "TITLE=%title%" -T "ALBUM=%albumtitle%" -T "DATE=%year%" -T "TRACKNUMBER=%tracknr%" -T "GENRE=%genre%" -T "COMMENT=%comment%" %source% -o %dest%
TOC of the extracted CD
     Track |   Start  |  Length  | Start sector | End sector
    ---------------------------------------------------------
        1  |  0:00.00 |  0:21.23 |         0    |     1597
        2  |  0:21.23 |  4:22.68 |      1598    |    21315
        3  |  4:44.16 |  0:24.57 |     21316    |    23172
        4  |  5:08.73 |  4:46.59 |     23173    |    44681
        5  |  9:55.57 |  2:38.52 |     44682    |    56583
        6  | 12:34.34 |  0:51.28 |     56584    |    60436
        7  | 13:25.62 |  1:41.29 |     60437    |    68040
        8  | 15:07.16 |  4:08.06 |     68041    |    86646
        9  | 19:15.22 |  0:15.20 |     86647    |    87791
       10  | 19:30.42 |  5:12.55 |     87792    |   111246
       11  | 24:43.22 |  3:00.63 |    111247    |   124809
       12  | 27:44.10 |  3:59.14 |    124810    |   142748
       13  | 31:43.24 |  0:34.01 |    142749    |   145299
       14  | 32:17.25 |  3:44.04 |    145300    |   162103
       15  | 36:01.29 |  2:51.36 |    162104    |   174964
       16  | 38:52.65 |  0:33.34 |    174965    |   177473
       17  | 39:26.24 |  4:04.22 |    177474    |   195795
       18  | 43:30.46 |  5:31.51 |    195796    |   220671
Range status and errors
Selected range
     Filename Y:\EAC\wurensh\Deckchair Poets\Deckchair Poets - Who Needs Pyjamas.wav
     Peak level 99.9 %
     Extraction speed 6.7 X
     Range quality 100.0 %
     Test CRC 6B684006
     Copy CRC 6B684006
     Copy OK
No errors occurred
AccurateRip summary
Track  1  not present in database
Track  2  not present in database
Track  3  not present in database
Track  4  not present in database
Track  5  not present in database
Track  6  not present in database
Track  7  not present in database
Track  8  not present in database
Track  9  not present in database
Track 10  not present in database
Track 11  not present in database
Track 12  not present in database
Track 13  not present in database
Track 14  not present in database
Track 15  not present in database
Track 16  not present in database
Track 17  not present in database
Track 18  not present in database
None of the tracks are present in the AccurateRip database
End of status report
Official Website
Samples @allmusic
Коврики 300dpi в комплекте.
Правила, инструкции, FAQ!!!
Торрент  Добавлен [26 мар 2019, 20:02] Скачать торрент Магнет ссылка
Скачать торрент
[ Размер 15.24 КБ / Просмотров 15 ]

Статус
Проверен 
 
Размер  365.85 МБ
Приватный: Нет (DHT включён)
.torrent скачан  1
 


     Отправить личное сообщение
   
Страница 1 из 1
Показать сообщения за:  Поле сортировки  
Начать новую тему Ответить на тему


Сейчас этот форум просматривают: нет зарегистрированных пользователей и гости: 0


Вы не можете начинать темы
Вы не можете отвечать на сообщения
Вы не можете редактировать свои сообщения
Вы не можете удалять свои сообщения
Вы не можете добавлять вложения

Перейти:  
cron